Results 1 to 1 of 1
  1. #1
    dR Rockers www.desirulez.net
    Join Date
    Jun 2012
    Posts
    1,341

    Thumbs up Kamaal Dhamaal Malamaal (2012) - 1/3 DVDScr - XviD - Esubs [DDR]

    Follow us on Social Media







    Kamaal Dhamaal Malamaal (2012)
    **DVDSCREENER 1/3DVDRip XviD ESubs**

    **Cleaned Audio**


    [ iNFO ]

    Code:
    General
    Complete name                            : 1cdscr-kdm-ddr.avi
    Source					 : DDR
    Ripper					 : th3obr0
    
    Format                                   : AVI
    Format/Info                              : Audio Video Interleave
    File size                                : 694 MiB
    Duration                                 : 2h 22mn
    Overall bit rate                         : 679 Kbps
    Writing application                      : VirtualDubMod 1.5.10.2 (build 2540/release)
    Writing library                          : VirtualDubMod build 2540/release
    
    Video
    ID                                       : 0
    Format                                   : MPEG-4 Visual
    Format profile                           : Advanced [email protected]
    Format settings, BVOP                    : 1
    Format settings, QPel                    : No
    Format settings, GMC                     : No warppoints
    Format settings, Matrix                  : Custom
    Codec ID                                 : XVID
    Codec ID/Hint                            : XviD
    Duration                                 : 2h 22mn
    Bit rate                                 : 590 Kbps
    Width                                    : 640 pixels
    Height                                   : 272 pixels
    Display aspect ratio                     : 2.35:1
    Frame rate                               : 23.976 fps
    Color space                              : YUV
    Chroma subsampling                       : 4:2:0
    Bit depth                                : 8 bits
    Scan type                                : Progressive
    Compression mode                         : Lossy
    Bits/(Pixel*Frame)                       : 0.141
    Stream size                              : 603 MiB (87%)
    Writing library                          : XviD 1.2.1 (UTC 2008-12-04)
    
    Audio
    ID                                       : 1
    Format                                   : MPEG Audio
    Format version                           : Version 1
    Format profile                           : Layer 3
    Mode                                     : Joint stereo
    Mode extension                           : MS Stereo
    Codec ID                                 : 55
    Codec ID/Hint                            : MP3
    Duration                                 : 2h 22mn
    Bit rate mode                            : Constant
    Bit rate                                 : 80.0 Kbps
    Channel(s)                               : 2 channels
    Sampling rate                            : 32.0 KHz
    Compression mode                         : Lossy
    Stream size                              : 81.7 MiB (12%)
    Alignment                                : Aligned on interleaves
    Interleave, duration                     : 42 ms (1.00 video frame)
    Interleave, preload duration             : 504 ms
    Writing library                          : LAME3.99r
    Encoding settings                        : -m j -V 4 -q 2 -lowpass 13.5 -b 80
    [ SCREENS ]



















    Sample
    Code:
    http://mirrorstack.com/k3x5ae24rkay
    DownLoad

    NetLoad
    Code:
    http://netload.in/datei5KG8uwbelt/dvdscr-kdm-ddr.avi.htm
    
    http://netload.in/datei4d9kfZHC72/dvdscr-kdm-ddr.srt.htm
    ExtaBit
    Code:
    http://extabit.com/file/279yyu1ejhmbz/dvdscr-kdm-ddr.avi
    
    http://extabit.com/file/279yyu1ek5ewf/dvdscr-kdm-ddr.srt
    FileFactory
    Code:
    http://www.filefactory.com/file/5zv04shgc9cr/n/dvdscr-kdm-ddr.avi
    
    http://www.filefactory.com/file/26f67qldf1rh/n/dvdscr-kdm-ddr.srt

 

 

Posting Permissions

  • You may not post new threads
  • You may not post replies
  • You may not post attachments
  • You may not edit your posts
  •