Results 1 to 1 of 1
  1. #1

    Default Raaja Raani - Son of Sardar (2012) hd 1080p

    Follow us on Social Media





    Raaja Raani - Son of Sardar (2012) hd 1080p


    Complete name : Raja Rani - Son of Sardaar.mp4
    Format : MPEG-4
    Format profile : Base Media / Version 2
    Codec ID : mp42
    File size : 94.4 MiB
    Duration : 2mn 21s
    Overall bit rate : 5 608 Kbps

    Video
    ID : 1
    Format : AVC
    Format/Info : Advanced Video Codec
    Format profile : [email protected]
    Format settings, CABAC : Yes
    Format settings, ReFrames : 1 frame
    Codec ID : avc1
    Codec ID/Info : Advanced Video Coding
    Duration : 2mn 21s
    Bit rate mode : Variable
    Bit rate : 5 414 Kbps
    Maximum bit rate : 14.0 Mbps
    Width : 1 920 pixels
    Height : 1 080 pixels
    Display aspect ratio : 16:9
    Frame rate mode : Constant
    Frame rate : 25.000 fps
    Color space : YUV
    Chroma subsampling : 4:2:0
    Bit depth : 8 bits
    Scan type : Progressive
    Bits/(Pixel*Frame) : 0.104
    Stream size : 91.1 MiB (97%)


    Audio
    ID : 2
    Format : AAC
    Format/Info : Advanced Audio Codec
    Format profile : LC
    Codec ID : 40
    Duration : 2mn 21s
    Bit rate mode : Variable
    Bit rate : 192 Kbps
    Maximum bit rate : 201 Kbps
    Channel(s) : 2 channels
    Channel positions : Front: L R
    Sampling rate : 44.1 KHz
    Compression mode : Lossy
    Stream size : 3.23 MiB (3%)




    Code:
    http://bitshare.com/files/qonld7ag/Raja-Rani---Son-of-Sardaar.mp4.html
    
    http://ul.to/ar4rq7w2
    
    http://rapidgator.net/file/46923851/Raja_Rani_-_Son_of_Sardaar.mp4.html



 

 

Posting Permissions

  • You may not post new threads
  • You may not post replies
  • You may not post attachments
  • You may not edit your posts
  •