Results 1 to 1 of 1
  1. #1
    dR Rockers www.desirulez.net
    Join Date
    Jun 2012
    Posts
    1,341

    Thumbs up Gangs Of Wasseypur 2 (2012) - 720p - DVDRip - x264 - AC3 5.1 - Esubs [DDR]

    Follow us on Social Media







    Gangs of Wasseypur PART II (2012)
    **720p DVDRip / 5.1 AC3**




    [ iNFO ]

    Code:
    General
    Complete name                            : 720p-dow2-ddr.avi
    Source					 : DDR
    Ripper					 : th3obr0
    
    Format                                   : Matroska
    Format version                           : Version 2
    File size                                : 3.00 GiB
    Duration                                 : 2h 39mn
    Overall bit rate                         : 2 681 Kbps
    Encoded date                             : UTC 2012-09-30 05:00:44
    Writing application                      : mkvmerge v5.6.0 ('Kenya Kane') built on May 27 2012 16:44:04
    Writing library                          : libebml v1.2.3 + libmatroska v1.3.0
    
    Video
    ID                                       : 1
    Format                                   : AVC
    Format/Info                              : Advanced Video Codec
    Format profile                           : [email protected]
    Format settings, CABAC                   : Yes
    Format settings, ReFrames                : 4 frames
    Muxing mode                              : Header stripping
    Codec ID                                 : V_MPEG4/ISO/AVC
    Duration                                 : 2h 39mn
    Bit rate                                 : 2 232 Kbps
    Width                                    : 1 280 pixels
    Height                                   : 544 pixels
    Display aspect ratio                     : 2.35:1
    Frame rate                               : 23.976 fps
    Color space                              : YUV
    Chroma subsampling                       : 4:2:0
    Bit depth                                : 8 bits
    Scan type                                : Progressive
    Bits/(Pixel*Frame)                       : 0.134
    Stream size                              : 2.44 GiB (81%)
    Title                                    : GoW2 720p [DDR]
    Writing library                          : x264 core 125 r2200 999b753
    Language                                 : Hindi
    Default                                  : Yes
    Forced                                   : No
    
    Audio
    ID                                       : 2
    Format                                   : AC-3
    Format/Info                              : Audio Coding 3
    Mode extension                           : CM (complete main)
    Format settings, Endianness              : Big
    Muxing mode                              : Header stripping
    Codec ID                                 : A_AC3
    Duration                                 : 2h 39mn
    Bit rate mode                            : Constant
    Bit rate                                 : 448 Kbps
    Channel(s)                               : 6 channels
    Channel positions                        : Front: L C R, Side: L R, LFE
    Sampling rate                            : 48.0 KHz
    Bit depth                                : 16 bits
    Compression mode                         : Lossy
    Stream size                              : 513 MiB (17%)
    Title                                    : 5.1 AC3 [DDR]
    Language                                 : Hindi
    Default                                  : Yes
    Forced                                   : No
    [ SCREENS ]

















    Sample
    Code:
    http://mirrorstack.com/jm06txn5bz17
    DownLoad

    Single Link
    Code:
    http://extabit.com/file/279yyu11hu1aa/720p-gow2-ddr.mkv
    NetLoad
    Code:
    http://netload.in/datei1H0sFGME39/720p-gow2-ddr.mkv.001.htm
    http://netload.in/dateituEqjecf4k/720p-gow2-ddr.mkv.002.htm
    
    http://netload.in/dateiStOT6KIm5Y/720p-gow2-ddr.srt.htm
    ExtaBit
    Code:
    http://extabit.com/file/279yyu11huqky/720p-gow2-ddr.mkv.001
    http://extabit.com/file/279yyu11huwyq/720p-gow2-ddr.mkv.002
    
    http://extabit.com/file/279yyu11hty82/720p-gow2-ddr.srt
    FileFactory
    Code:
    http://www.filefactory.com/file/48ps7frx02bl/n/720p-gow2-ddr.mkv.001
    http://www.filefactory.com/file/59lyfqrj6h0h/n/720p-gow2-ddr.mkv.002
    
    http://www.filefactory.com/file/3h8e61k6rupt/n/720p-gow2-ddr.srt

 

 

Posting Permissions

  • You may not post new threads
  • You may not post replies
  • You may not post attachments
  • You may not edit your posts
  •