Results 1 to 1 of 1
  1. #1

    Thumbs up U Me Aur Hum (2008) DVDRIP [Taimoor] TEAM EXDRS

    Follow us on Social Media





    U Me Aur Hum (2008) DVDRIP [Taimoor] TEAM EXDRS





    Code:
    IMDB
    http://www.imdb.com/title/tt1039995/
    
    General
    Complete name : U Me Aur Hum\U Me Aur Hum (2008) DVDRIP [Taimoor] TEAM EXDRS.avi
    Format : AVI
    Format/Info : Audio Video Interleave
    File size : 698 MiB
    Duration : 2h 42mn
    Overall bit rate : 600 Kbps
    Writing application : VirtualDubMod 1.5.10.2 (build 2540/release)
    Writing library : VirtualDubMod build 2540/release
    
    Video
    ID : 0
    Format : MPEG-4 Visual
    Format profile : Advanced [email protected]
    Format settings, BVOP : 1
    Format settings, QPel : No
    Format settings, GMC : No warppoints
    Format settings, Matrix : Default (MPEG)
    Muxing mode : Packed bitstream
    Codec ID : XVID
    Codec ID/Hint : XviD
    Duration : 2h 42mn
    Bit rate : 495 Kbps
    Width : 640 pixels
    Height : 272 pixels
    Display aspect ratio : 2.35:1
    Frame rate : 23.976 fps
    Color space : YUV
    Chroma subsampling : 4:2:0
    Bit depth : 8 bits
    Scan type : Progressive
    Compression mode : Lossy
    Bits/(Pixel*Frame) : 0.119
    Stream size : 575 MiB (82%)
    Writing library : XviD 1.2.0.dev45 (UTC 2006-07-10)
    
    Audio
    ID : 1
    Format : MPEG Audio
    Format version : Version 1
    Format profile : Layer 3
    Mode : Joint stereo
    Mode extension : MS Stereo
    Codec ID : 55
    Codec ID/Hint : MP3
    Duration : 2h 42mn
    Bit rate mode : Constant
    Bit rate : 96.0 Kbps
    Channel(s) : 2 channels
    Sampling rate : 48.0 KHz
    Compression mode : Lossy
    Stream size : 112 MiB (16%)
    Alignment : Split accross interleaves
    Interleave, duration : 42 ms (1.00 video frame)
    Interleave, preload duration : 500 ms
    Writing library : LAME3.97b
    Encoding settings : -m j -V 4 -q 2 -lowpass 16 -b 96















    Code:
    Resume Support File[IDM+DAP Supported]
    http://ultramegabit.com/file/details/Q-d0nk-bhGw
    OR
    http://extabit.com/file/279yvplzjaupi/U Me Aur Hum (2008) DVDRIP [Taimoor] TEAM EXDRS.avi
    OR
    http://rapidshare.com/files/2413886171/U%20Me%20Aur%20Hum%20(2008)%20DVDRIP%20_Taimoor_%20TEAM%20EXDRS.avi



 

 

Posting Permissions

  • You may not post new threads
  • You may not post replies
  • You may not post attachments
  • You may not edit your posts
  •