Results 1 to 1 of 1
  1. #1
    Super Member www.desirulez.net
    Join Date
    Aug 2012
    Posts
    211

    Default Gangs Of Wasseypur 2 (2012) - 1/3 DVDRip - XviD - AC3 5.1 - [DDR]

    Follow us on Social Media





    Gangs Of Wasseypur 2 (2012) - 1/3 DVDRip - XviD - AC3 5.1 - [DDR]



    Gangs of Wasseypur PART II (2012)
    **DVDRip / 5.1 AC3**




    [ iNFO ]

    Code:
    General
    Complete name                            : dvdrip-dow2-ddr.avi
    Source					 : DDR
    Ripper					 : th3obr0
    
    Format                                   : AVI
    Format/Info                              : Audio Video Interleave
    File size                                : 1.46 GiB
    Duration                                 : 2h 39mn
    Overall bit rate                         : 1 302 Kbps
    Writing application                      : VirtualDubMod 1.5.10.2 (build 2540/release)
    Writing library                          : VirtualDubMod build 2540/release
    
    Video
    ID                                       : 0
    Format                                   : MPEG-4 Visual
    Format profile                           : Advanced [email protected]
    Format settings, BVOP                    : 2
    Format settings, QPel                    : No
    Format settings, GMC                     : No warppoints
    Format settings, Matrix                  : Custom
    Codec ID                                 : XVID
    Codec ID/Hint                            : XviD
    Duration                                 : 2h 39mn
    Bit rate                                 : 1 037 Kbps
    Width                                    : 720 pixels
    Height                                   : 304 pixels
    Display aspect ratio                     : 2.35:1
    Frame rate                               : 23.976 fps
    Color space                              : YUV
    Chroma subsampling                       : 4:2:0
    Bit depth                                : 8 bits
    Scan type                                : Progressive
    Compression mode                         : Lossy
    Bits/(Pixel*Frame)                       : 0.198
    Stream size                              : 1.16 GiB (80%)
    Writing library                          : XviD 1.2.1 (UTC 2008-12-04)
    
    Audio
    ID                                       : 1
    Format                                   : AC-3
    Format/Info                              : Audio Coding 3
    Mode extension                           : CM (complete main)
    Format settings, Endianness              : Big
    Codec ID                                 : 2000
    Duration                                 : 2h 39mn
    Bit rate mode                            : Constant
    Bit rate                                 : 256 Kbps
    Channel(s)                               : 6 channels
    Channel positions                        : Front: L C R, Side: L R, LFE
    Sampling rate                            : 48.0 KHz
    Bit depth                                : 16 bits
    Compression mode                         : Lossy
    Stream size                              : 293 MiB (20%)
    Alignment                                : Split accross interleaves
    Interleave, duration                     : 42 ms (1.00 video frame)
    Interleave, preload duration             : 500 ms

















    **Single Links**
    Code:
    http://extabit.com/file/279crgoq1uqfi/2cd.dvdrip.gow2-ddr.avi
    
    http://ryushare.com/321cf7ef3b40/2cd.dvdrip.gow2-ddr.avi
    
    http://www.netload.in/dateiTocsMNNnDR/2cd.dvdrip.gow2-ddr.avi.htm
    **Extabit**
    Code:
    http://extabit.com/file/279crgoq676fy/2cd.dvdrip.gow2-ddr.avi.001
    http://extabit.com/file/279crgoq676fi/2cd.dvdrip.gow2-ddr.avi.002
    http://extabit.com/file/279crgoq67g0e/2cd.dvdrip.gow2-ddr.avi.003
    **Ryushare**
    Code:
    http://ryushare.com/2904a97c1de3/2cd.dvdrip.gow2-ddr.avi.001
    http://ryushare.com/29ed7e212e8c/2cd.dvdrip.gow2-ddr.avi.002
    http://ryushare.com/27330031fcd8/2cd.dvdrip.gow2-ddr.avi.003
    **NetLoad**
    Code:
    http://www.netload.in/datei88kqlmF666/2cd.dvdrip.gow2-ddr.avi.001.htm
    http://www.netload.in/datei0KpI4BSeG5/2cd.dvdrip.gow2-ddr.avi.002.htm
    http://www.netload.in/dateiRZDdDCKAfn/2cd.dvdrip.gow2-ddr.avi.003.htm


 

 

Posting Permissions

  • You may not post new threads
  • You may not post replies
  • You may not post attachments
  • You may not edit your posts
  •