Results 1 to 1 of 1
  1. #1
    Super Member www.desirulez.net
    Join Date
    Aug 2012
    Posts
    211

    Default Gangs Of Wasseypur 2 (2012) - 480p 1/2 DVDRip - x264 - AC3 5.1 - [DDR]

    Follow us on Social Media





    Gangs Of Wasseypur 2 (2012) - 480p 1/2 DVDRip - x264 - AC3 5.1 - [DDR]



    Gangs of Wasseypur PART II (2012)
    **480p DVDRip / 5.1 AC3**




    [ iNFO ]

    Code:
    General
    Complete name                            : dvdrip-dow2-ddr.mkv
    Source					 : DDR
    Ripper					 : th3obr0
    
    Format                                   : Matroska
    Format version                           : Version 2
    File size                                : 2.18 GiB
    Duration                                 : 2h 39mn
    Overall bit rate                         : 1 949 Kbps
    Encoded date                             : UTC 2012-09-30 03:24:21
    Writing application                      : mkvmerge v5.7.0 ('The Whirlwind') built on Jul  8 2012 20:08:51
    Writing library                          : libebml v1.2.3 + libmatroska v1.3.0
    
    Video
    ID                                       : 1
    Format                                   : AVC
    Format/Info                              : Advanced Video Codec
    Format profile                           : [email protected]
    Format settings, CABAC                   : Yes
    Format settings, ReFrames                : 4 frames
    Codec ID                                 : V_MPEG4/ISO/AVC
    Duration                                 : 2h 39mn
    Bit rate                                 : 1 499 Kbps
    Width                                    : 864 pixels
    Height                                   : 368 pixels
    Display aspect ratio                     : 2.35:1
    Frame rate                               : 23.976 fps
    Color space                              : YUV
    Chroma subsampling                       : 4:2:0
    Bit depth                                : 8 bits
    Scan type                                : Progressive
    Bits/(Pixel*Frame)                       : 0.197
    Stream size                              : 1.63 GiB (75%)
    Title                                    : GoW 2 [DDR]
    Writing library                          : x264 core 125 r2200 999b753
    Default                                  : Yes
    Forced                                   : No
    
    Audio
    ID                                       : 2
    Format                                   : AC-3
    Format/Info                              : Audio Coding 3
    Mode extension                           : CM (complete main)
    Format settings, Endianness              : Big
    Codec ID                                 : A_AC3
    Duration                                 : 2h 39mn
    Bit rate mode                            : Constant
    Bit rate                                 : 448 Kbps
    Channel(s)                               : 6 channels
    Channel positions                        : Front: L C R, Side: L R, LFE
    Sampling rate                            : 48.0 KHz
    Bit depth                                : 16 bits
    Compression mode                         : Lossy
    Stream size                              : 513 MiB (23%)
    Title                                    : Hindi 5.1 [DDR]
    Language                                 : Hindi
    Default                                  : Yes
    Forced                                   : No











    **Single Links**
    Code:
    http://extabit.com/file/279crgoq1uk8u/3cd.dvdrip.480p.Gow2-ddr.mkv
    
    http://ryushare.com/321cf7ef3b44/3cd.dvdrip.480p.Gow2-ddr.mkv
    **Extabit**
    Code:
    http://extabit.com/file/279crgoq679ke/3cd.dvdrip.480p.Gow2-ddr.mkv.001
    http://extabit.com/file/279crgoq67fv2/3cd.dvdrip.480p.Gow2-ddr.mkv.002
    http://extabit.com/file/279crgoq67ma6/3cd.dvdrip.480p.Gow2-ddr.mkv.003
    http://extabit.com/file/279crgoq679ku/3cd.dvdrip.480p.Gow2-ddr.mkv.004
    **Ryushare**
    Code:
    http://ryushare.com/29ed7e212e99/3cd.dvdrip.480p.Gow2-ddr.mkv.001
    http://ryushare.com/27330031fce6/3cd.dvdrip.480p.Gow2-ddr.mkv.002
    http://ryushare.com/27330031fce7/3cd.dvdrip.480p.Gow2-ddr.mkv.003
    http://ryushare.com/27330031fce8/3cd.dvdrip.480p.Gow2-ddr.mkv.004
    **NetLoad**
    Code:
    http://www.netload.in/datei2NYXMIhqET/3cd.dvdrip.480p.Gow2-ddr.mkv.001.htm
    http://www.netload.in/dateiKowuOAYaWw/3cd.dvdrip.480p.Gow2-ddr.mkv.002.htm
    http://www.netload.in/datei136hEbEdBu/3cd.dvdrip.480p.Gow2-ddr.mkv.003.htm
    http://www.netload.in/dateilV9kUZ7h1m/3cd.dvdrip.480p.Gow2-ddr.mkv.004.htm


 

 

Posting Permissions

  • You may not post new threads
  • You may not post replies
  • You may not post attachments
  • You may not edit your posts
  •