Results 1 to 1 of 1
  1. #1
    Hot Member www.desirulez.net
    Join Date
    Feb 2011
    Location
    Bulletproof IP
    Posts
    1,189

    Default OMG Oh My God (2012) DVDSCREENER XviD 1CDRip ESubs [DDR-ExclusivE]

    Follow us on Social Media





    Oh My God (2012)
    **DVDSCREENER XviD 1CDRip ESubs**

    **Cleaned Audio**



    [ iNFO ]
    Code:
    General
    Complete name                            : 1cdscr-omg-ddr.avi
    Source					 : DDR
    Ripper					 : th3obr0
    
    Format                                   : AVI
    Format/Info                              : Audio Video Interleave
    File size                                : 694 MiB
    Duration                                 : 2h 4mn
    Overall bit rate                         : 778 Kbps
    Writing application                      : VirtualDubMod 1.5.10.2 (build 2540/release)
    Writing library                          : VirtualDubMod build 2540/release
    
    Video
    ID                                       : 0
    Format                                   : MPEG-4 Visual
    Format profile                           : Advanced [email protected]
    Format settings, BVOP                    : 1
    Format settings, QPel                    : No
    Format settings, GMC                     : No warppoints
    Format settings, Matrix                  : Custom
    Codec ID                                 : XVID
    Codec ID/Hint                            : XviD
    Duration                                 : 2h 4mn
    Bit rate                                 : 672 Kbps
    Width                                    : 640 pixels
    Height                                   : 256 pixels
    Display aspect ratio                     : 2.500
    Frame rate                               : 23.976 fps
    Color space                              : YUV
    Chroma subsampling                       : 4:2:0
    Bit depth                                : 8 bits
    Scan type                                : Progressive
    Compression mode                         : Lossy
    Bits/(Pixel*Frame)                       : 0.171
    Stream size                              : 600 MiB (86%)
    Writing library                          : XviD 1.2.1 (UTC 2008-12-04)
    
    Audio
    ID                                       : 1
    Format                                   : MPEG Audio
    Format version                           : Version 1
    Format profile                           : Layer 3
    Mode                                     : Joint stereo
    Mode extension                           : MS Stereo
    Codec ID                                 : 55
    Codec ID/Hint                            : MP3
    Duration                                 : 2h 4mn
    Bit rate mode                            : Constant
    Bit rate                                 : 96.0 Kbps
    Channel(s)                               : 2 channels
    Sampling rate                            : 32.0 KHz
    Compression mode                         : Lossy
    Stream size                              : 85.7 MiB (12%)
    Alignment                                : Aligned on interleaves
    Interleave, duration                     : 42 ms (1.00 video frame)
    Interleave, preload duration             : 504 ms
    Writing library                          : LAME3.99r
    Encoding settings                        : -m j -V 4 -q 2 -lowpass 15.1 -b 96
    [ SCREENS ]



















    [ RIPPER'S NOTES ]

    >>Tests Performed<<
    - Audio In-Sync? O.K.
    - Subs In-Sync? O.K.
    - Compatibility? VLC and MPC - O.K..

    All Credits Goes To DDR (Thanks)

    Size: 694.39 MB

    Code:
    http://turbobit.net/759yw25g7khn/OMG-DVDScr-XviD-1CDRip-DDR.avi.html
    or
    http://rapidgator.net/file/47370647/OMG-DVDScr-XviD-1CDRip-DDR.avi.html
    
    Subtitles:
    http://rapidgator.net/file/47368887/OMG-DVDScr-XviD-1CDRip-DDR.srt.html

 

 

Posting Permissions

  • You may not post new threads
  • You may not post replies
  • You may not post attachments
  • You may not edit your posts
  •