Results 1 to 1 of 1
  1. #1
    dR Rockers www.desirulez.net
    Join Date
    Jun 2012
    Posts
    1,341

    Thumbs up OMG Oh My God! (2012) - 1/3 DVDScr - XviD - AC3 - Esubs [DDR]

    Follow us on Social Media







    Oh My God (2012)
    **EXCLUSIVE DVDSCRENER By DDR**




    [ iNFO ]

    Code:
    General
    Complete name                            : dvdscr-omg-ddr.avi
    Source					 : DDR
    Ripper					 : th3obr0
    
    Format                                   : AVI
    Format/Info                              : Audio Video Interleave
    File size                                : 1.42 GiB
    Duration                                 : 2h 4mn
    Overall bit rate                         : 1 623 Kbps
    Writing application                      : VirtualDubMod 1.5.10.2 (build 2540/release)
    Writing library                          : VirtualDubMod build 2540/release
    
    Video
    ID                                       : 0
    Format                                   : MPEG-4 Visual
    Format profile                           : Advanced [email protected]
    Format settings, BVOP                    : 2
    Format settings, QPel                    : No
    Format settings, GMC                     : No warppoints
    Format settings, Matrix                  : Custom
    Codec ID                                 : XVID
    Codec ID/Hint                            : XviD
    Duration                                 : 2h 4mn
    Bit rate                                 : 1 421 Kbps
    Width                                    : 720 pixels
    Height                                   : 288 pixels
    Display aspect ratio                     : 2.500
    Frame rate                               : 23.976 fps
    Color space                              : YUV
    Chroma subsampling                       : 4:2:0
    Bit depth                                : 8 bits
    Scan type                                : Progressive
    Compression mode                         : Lossy
    Bits/(Pixel*Frame)                       : 0.286
    Stream size                              : 1.24 GiB (88%)
    Writing library                          : XviD 1.2.1 (UTC 2008-12-04)
    
    Audio
    ID                                       : 1
    Format                                   : AC-3
    Format/Info                              : Audio Coding 3
    Mode extension                           : CM (complete main)
    Format settings, Endianness              : Big
    Codec ID                                 : 2000
    Duration                                 : 2h 4mn
    Bit rate mode                            : Constant
    Bit rate                                 : 192 Kbps
    Channel(s)                               : 2 channels
    Channel positions                        : Front: L R
    Sampling rate                            : 48.0 KHz
    Bit depth                                : 16 bits
    Compression mode                         : Lossy
    Stream size                              : 171 MiB (12%)
    Alignment                                : Split accross interleaves
    Interleave, duration                     : 42 ms (1.00 video frame)
    Interleave, preload duration             : 500 ms
    [ SCREENS ]























    Sample
    Code:
    http://mirrorstack.com/m3kuolehy9gg
    DownLoad

    NetLoad
    Code:
    http://netload.in/datei1HNEJEqPgy/dvdscr-omg-ddr.avi.htm
    
    http://netload.in/dateiCzmb3ngPqf/dvdscr-omg-ddr.srt.htm
    ExtaBit
    Code:
    http://extabit.com/file/279yyu25842u0/dvdscr-omg-ddr.avi
    
    http://extabit.com/file/279yyu258qag8/dvdscr-omg-ddr.srt
    FileFactory
    Code:
    http://www.filefactory.com/file/mmtahi76ha3/n/dvdscr-omg-ddr.avi
    
    http://www.filefactory.com/file/ncodhah8l8n/n/dvdscr-omg-ddr.srt

 

 

Posting Permissions

  • You may not post new threads
  • You may not post replies
  • You may not post attachments
  • You may not edit your posts
  •