Results 1 to 1 of 1
  1. #1

    Thumbs up OMG Oh My God! *2012* DVDSCREENER XviD 2CDRip ESubs [DDR-ExclusivE]

    Follow us on Social Media





    OMG Oh My God! *2012* DVDSCREENER XviD 2CDRip ESubs [DDR-ExclusivE]



    Code:
    Quote
    General
    Complete name : dvdscr-omg-ddr.avi
    Source	 : DDR
    Ripper	 : th3obr0
    
    Format : AVI
    Format/Info : Audio Video Interleave
    File size : 1.42 GiB
    Duration : 2h 4mn
    Overall bit rate : 1 623 Kbps
    Writing application : VirtualDubMod 1.5.10.2 (build 2540/release)
    Writing library : VirtualDubMod build 2540/release
    
    Video
    ID : 0
    Format : MPEG-4 Visual
    Format profile : Advanced [email protected]
    Format settings, BVOP : 2
    Format settings, QPel : No
    Format settings, GMC : No warppoints
    Format settings, Matrix : Custom
    Codec ID : XVID
    Codec ID/Hint : XviD
    Duration : 2h 4mn
    Bit rate : 1 421 Kbps
    Width : 720 pixels
    Height : 288 pixels
    Display aspect ratio : 2.500
    Frame rate : 23.976 fps
    Color space : YUV
    Chroma subsampling : 4:2:0
    Bit depth : 8 bits
    Scan type : Progressive
    Compression mode : Lossy
    Bits/(Pixel*Frame) : 0.286
    Stream size : 1.24 GiB (88%)
    Writing library : XviD 1.2.1 (UTC 2008-12-04)
    
    Audio
    ID : 1
    Format : AC-3
    Format/Info : Audio Coding 3
    Mode extension : CM (complete main)
    Format settings, Endianness : Big
    Codec ID : 2000
    Duration : 2h 4mn
    Bit rate mode : Constant
    Bit rate : 192 Kbps
    Channel(s) : 2 channels
    Channel positions : Front: L R
    Sampling rate : 48.0 KHz
    Bit depth : 16 bits
    Compression mode : Lossy
    Stream size : 171 MiB (12%)
    Alignment : Split accross interleaves
    Interleave, duration : 42 ms (1.00 video frame)
    Interleave, preload duration : 500 ms











    Code:
    Sample
    http://rapidshare.com/files/768644198/smpl-omg-ddr.avi
    Code:
    http://extabit.com/file/279yvpl8kxa99/dvdscr-omg-ddr.avi.001
    http://extabit.com/file/279yvpl8kx77x/dvdscr-omg-ddr.avi.002
    http://extabit.com/file/279yvpl8kw23h/en-omg-ddr.srt
    OR
    http://rapidshare.com/files/3629797221/dvdscr-omg-ddr.avi.001
    http://rapidshare.com/files/3497423829/dvdscr-omg-ddr.avi.002
    http://rapidshare.com/files/1715415399/en-omg-ddr.srt



 

 

Posting Permissions

  • You may not post new threads
  • You may not post replies
  • You may not post attachments
  • You may not edit your posts
  •