Results 1 to 1 of 1
  1. #1
    dR Rockers www.desirulez.net
    Join Date
    Jun 2011
    Posts
    2,793

    Thumbs up Shirin Farhad Ki Toh Nikal Padi 2012 -1CD-DVDRip x264 AC3 [email protected] mkv 700mb

    Follow us on Social Media









    Format : Matroska
    Format version : Version 2
    File size : 697 MiB
    Duration : 1h 51mn
    Overall bit rate : 872 Kbps

    Codec ID : V_MPEG4/ISO/AVC
    Duration : 1h 51mn
    Bit rate : 743 Kbps
    Width : 720 pixels
    Height : 304 pixels
    Display aspect ratio : 2.35:1
    Frame rate : 23.976 fps
    Color space : YUV
    Chroma subsampling : 4:2:0
    Bit depth : 8 bits
    Scan type : Progressive
    Bits/(Pixel*Frame) : 0.142
    Stream size : 581 MiB (83%)
    Title : [email protected]

    Codec ID : A_AC3
    Duration : 1h 51mn
    Bit rate mode : Constant
    Bit rate : 128 Kbps
    Channel(s) : 2 channels
    Channel positions : Front: L R
    Sampling rate : 48.0 KHz
    Bit depth : 16 bits
    Compression mode : Lossy
    Stream size : 102 MiB (15%)
    Title : [email protected]
    Language : Hindi














    (Resume Supported for Free Users)
    Code:
    http://www.queenshare.com/zsay1v5s2pjg
    
    Subtitles : http://billionuploads.com/xsuoa76bgpob


 

 

Posting Permissions

  • You may not post new threads
  • You may not post replies
  • You may not post attachments
  • You may not edit your posts
  •