Results 1 to 1 of 1
  1. #1
    dR Rockers www.desirulez.net
    Join Date
    Aug 2011
    Posts
    5,859

    Cool Gangs of Wasseypur II (2012) - 700MB - DVDRip - XviD - 1CDRip - [DDR]

    Follow us on Social Media













    [ iNFO ]

    Code:
    General
    Complete name                            : dvdrip-dow2-ddr.avi
    Source                     : DDR
    Ripper                     : th3obr0
    
    Format                                   : AVI
    Format/Info                              : Audio Video Interleave
    File size                                : 697 MiB
    Duration                                 : 2h 39mn
    Overall bit rate mode                    : Variable
    Overall bit rate                         : 609 Kbps
    Writing application                      : VirtualDubMod 1.5.10.2 (build 2540/release)
    Writing library                          : VirtualDubMod build 2540/release
    
    Video
    ID                                       : 0
    Format                                   : MPEG-4 Visual
    Format profile                           : Advanced [email protected]
    Format settings, BVOP                    : 1
    Format settings, QPel                    : No
    Format settings, GMC                     : No warppoints
    Format settings, Matrix                  : Custom
    Codec ID                                 : XVID
    Codec ID/Hint                            : XviD
    Duration                                 : 2h 39mn
    Bit rate                                 : 522 Kbps
    Width                                    : 608 pixels
    Height                                   : 256 pixels
    Display aspect ratio                     : 2.40:1
    Frame rate                               : 23.976 fps
    Color space                              : YUV
    Chroma subsampling                       : 4:2:0
    Bit depth                                : 8 bits
    Scan type                                : Progressive
    Compression mode                         : Lossy
    Bits/(Pixel*Frame)                       : 0.140
    Stream size                              : 597 MiB (86%)
    Writing library                          : XviD 1.2.1 (UTC 2008-12-04)
    
    Audio
    ID                                       : 1
    Format                                   : MPEG Audio
    Format version                           : Version 1
    Format profile                           : Layer 3
    Mode                                     : Joint stereo
    Mode extension                           : MS Stereo
    Codec ID                                 : 55
    Codec ID/Hint                            : MP3
    Duration                                 : 2h 39mn
    Bit rate mode                            : Variable
    Bit rate                                 : 80.0 Kbps
    Channel(s)                               : 2 channels
    Sampling rate                            : 32.0 KHz
    Compression mode                         : Lossy
    Stream size                              : 88.8 MiB (13%)
    Alignment                                : Aligned on interleaves
    Interleave, duration                     : 36 ms (0.86 video frame)
    Interleave, preload duration             : 252 ms
    Writing library                          : LAME3.99r
    Encoding settings                        : -m j -V 4 -q 2 -lowpass 13.5 --abr 80












    SINGLE DIRECT FAST LINKS


    Code:
    http://extabit.com/file/2dubfyar7vi3i/Gangs.of.Wasseypur.II.(2012).DVDRip.XviD.1CDRip.[DDR].avi
    http://extabit.com/file/2dubfyar8hsvi/Gangs.of.Wasseypur.II.(2012).DVDRip.XviD.1CDRip.[DDR].srt

    Code:
    http://ryushare.com/4d65e3464c6a/Gangs.of.Wasseypur.II.(2012).DVDRip.XviD.1CDRip.[DDR].avi
    http://ryushare.com/4b9439fc33e6/Gangs.of.Wasseypur.II.(2012).DVDRip.XviD.1CDRip.[DDR].srt

 

 

Posting Permissions

  • You may not post new threads
  • You may not post replies
  • You may not post attachments
  • You may not edit your posts
  •