Results 1 to 1 of 1
  1. #1
    dR Rockers www.desirulez.net
    Join Date
    Jun 2012
    Posts
    1,341

    Thumbs up Gangs Of Wasseypur 2 (2012) - 1/3 DVDRip - XviD - AC3 5.1 - Esubs [DDR]

    Follow us on Social Media







    Gangs of Wasseypur PART II (2012)
    **DVDRip / 5.1 AC3**




    [ iNFO ]

    Code:
    General
    Complete name                            : dvdrip-dow2-ddr.avi
    Source					 : DDR
    Ripper					 : th3obr0
    
    Format                                   : AVI
    Format/Info                              : Audio Video Interleave
    File size                                : 1.46 GiB
    Duration                                 : 2h 39mn
    Overall bit rate                         : 1 302 Kbps
    Writing application                      : VirtualDubMod 1.5.10.2 (build 2540/release)
    Writing library                          : VirtualDubMod build 2540/release
    
    Video
    ID                                       : 0
    Format                                   : MPEG-4 Visual
    Format profile                           : Advanced [email protected]
    Format settings, BVOP                    : 2
    Format settings, QPel                    : No
    Format settings, GMC                     : No warppoints
    Format settings, Matrix                  : Custom
    Codec ID                                 : XVID
    Codec ID/Hint                            : XviD
    Duration                                 : 2h 39mn
    Bit rate                                 : 1 037 Kbps
    Width                                    : 720 pixels
    Height                                   : 304 pixels
    Display aspect ratio                     : 2.35:1
    Frame rate                               : 23.976 fps
    Color space                              : YUV
    Chroma subsampling                       : 4:2:0
    Bit depth                                : 8 bits
    Scan type                                : Progressive
    Compression mode                         : Lossy
    Bits/(Pixel*Frame)                       : 0.198
    Stream size                              : 1.16 GiB (80%)
    Writing library                          : XviD 1.2.1 (UTC 2008-12-04)
    
    Audio
    ID                                       : 1
    Format                                   : AC-3
    Format/Info                              : Audio Coding 3
    Mode extension                           : CM (complete main)
    Format settings, Endianness              : Big
    Codec ID                                 : 2000
    Duration                                 : 2h 39mn
    Bit rate mode                            : Constant
    Bit rate                                 : 256 Kbps
    Channel(s)                               : 6 channels
    Channel positions                        : Front: L C R, Side: L R, LFE
    Sampling rate                            : 48.0 KHz
    Bit depth                                : 16 bits
    Compression mode                         : Lossy
    Stream size                              : 293 MiB (20%)
    Alignment                                : Split accross interleaves
    Interleave, duration                     : 42 ms (1.00 video frame)
    Interleave, preload duration             : 500 ms
    [ SCREENS ]





























    Sample
    Code:
    http://mirrorstack.com/damyfp4p7dkp
    DownLoad

    NetLoad
    Code:
    http://netload.in/dateizeBYxF9DVy/2cddvdrip-gow2-ddr.avi.htm
    
    http://netload.in/dateiJlbVe3GU9e/2cddvdrip-gow2-ddr.srt.htm
    ExtaBit
    Code:
    http://extabit.com/file/279qlj4ps1ydr/2cddvdrip-gow2-ddr.avi
    
    http://extabit.com/file/279qlj4ps1yf3/2cddvdrip-gow2-ddr.srt
    FileFactory
    Code:
    http://www.filefactory.com/file/n5mb7fbeuq7/n/2cddvdrip-gow2-ddr.avi
    
    http://www.filefactory.com/file/3ai9ojkmrikv/n/2cddvdrip-gow2-ddr.srt

 

 

Posting Permissions

  • You may not post new threads
  • You may not post replies
  • You may not post attachments
  • You may not edit your posts
  •