Results 1 to 1 of 1
  1. #1
    dR Rockers www.desirulez.net
    Join Date
    Aug 2011
    Posts
    5,859

    Cool Shirin Farhad Ki Toh Nikal Padi (2012) - 700MB - 1CDRip - DVDRip - [EXD Exclusive]

    Follow us on Social Media














    Code:
    Rip Information
    
    Format                                   : Matroska
    Format version                           : Version 2
    File size                                : 697 MiB
    Duration                                 : 1h 51mn
    Overall bit rate                         : 872 Kbps
    Movie name                               : Shirin Farhad Ki Toh Nikal Padi (2012)[email protected] [EXD Exclusive]
    
    
    
    Video
    
    Format                                   : AVC
    Format/Info                              : Advanced Video Codec
    Format profile                           : [email protected]
    Format settings, CABAC                   : Yes
    Format settings, ReFrames                : 4 frames
    Muxing mode                              : Header stripping
    Codec ID                                 : V_MPEG4/ISO/AVC
    Duration                                 : 1h 51mn
    Bit rate                                 : 743 Kbps
    Width                                    : 720 pixels
    Height                                   : 304 pixels
    Display aspect ratio                     : 2.35:1
    Frame rate                               : 23.976 fps
    Color space                              : YUV
    Chroma subsampling                       : 4:2:0
    Bit depth                                : 8 bits
    Scan type                                : Progressive
    Bits/(Pixel*Frame)                       : 0.142
    Stream size                              : 581 MiB (83%)
    Title                                    : [email protected]
    Writing library                          : x264 core 125 r2200 999b753
    
    
    
    Audio
    
    Codec ID                                 : A_AC3
    Duration                                 : 1h 51mn
    Bit rate mode                            : Constant
    Bit rate                                 : 128 Kbps
    Channel(s)                               : 2 channels
    Channel positions                        : Front: L R
    Sampling rate                            : 48.0 KHz
    Bit depth                                : 16 bits
    Compression mode                         : Lossy
    Stream size                              : 102 MiB (15%)
    Title                                    : [email protected]
    Language                                 : Hindi










    SINGLE DIRECT FAST LINKS




    Code:
    http://extabit.com/file/2dubfyalrme9u/Shirin.Farhad.Ki.Toh.Nikal.Padi.(2012).1CD.DVDRip.[EXD.Exclusive].mkv
    http://extabit.com/file/2dubfyalrmnoi/Shirin.Farhad.Ki.Toh.Nikal.Padi.(2012).1CD.DVDRip.[EXD.Exclusive].srt

    Code:
    http://ryushare.com/55955d1386af/Shirin.Farhad.Ki.Toh.Nikal.Padi.(2012).1CD.DVDRip.[EXD.Exclusive].mkv
    http://ryushare.com/52dadf24576b/Shirin.Farhad.Ki.Toh.Nikal.Padi.(2012).1CD.DVDRip.[EXD.Exclusive].srt

 

 

Posting Permissions

  • You may not post new threads
  • You may not post replies
  • You may not post attachments
  • You may not edit your posts
  •