Results 1 to 1 of 1
  1. #1
    Hot Member www.desirulez.net
    Join Date
    Feb 2011
    Location
    Bulletproof IP
    Posts
    1,189

    Default Shirin Farhad Ki Toh Nikal Padi (2012) - 1CD DVDRip - x264 - ESubs - [ExD Exclusive]

    Follow us on Social Media





    Shirin Farhad Ki Toh Nikal Padi
    (2012)
    1CD DVDRip - x264 - ESubs - [ExD Exclusive]




















    Rip Information
    Code:
    Format                                   : Matroska
    Format version                           : Version 2
    File size                                : 697 MiB
    Duration                                 : 1h 51mn
    Overall bit rate                         : 872 Kbps
    Movie name                               : Shirin Farhad Ki Toh Nikal Padi (2012)[email protected] [EXD Exclusive]
    Imdb                                     : http://www.imdb.com/title/tt2187972/
    Video
    Code:
    Format                                   : AVC
    Format/Info                              : Advanced Video Codec
    Format profile                           : [email protected]
    Format settings, CABAC                   : Yes
    Format settings, ReFrames                : 4 frames
    Muxing mode                              : Header stripping
    Codec ID                                 : V_MPEG4/ISO/AVC
    Duration                                 : 1h 51mn
    Bit rate                                 : 743 Kbps
    Width                                    : 720 pixels
    Height                                   : 304 pixels
    Display aspect ratio                     : 2.35:1
    Frame rate                               : 23.976 fps
    Color space                              : YUV
    Chroma subsampling                       : 4:2:0
    Bit depth                                : 8 bits
    Scan type                                : Progressive
    Bits/(Pixel*Frame)                       : 0.142
    Stream size                              : 581 MiB (83%)
    Title                                    : [email protected]
    Writing library                          : x264 core 125 r2200 999b753
    Audio
    Code:
    Codec ID                                 : A_AC3
    Duration                                 : 1h 51mn
    Bit rate mode                            : Constant
    Bit rate                                 : 128 Kbps
    Channel(s)                               : 2 channels
    Channel positions                        : Front: L R
    Sampling rate                            : 48.0 KHz
    Bit depth                                : 16 bits
    Compression mode                         : Lossy
    Stream size                              : 102 MiB (15%)
    Title                                    : [email protected]
    Language                                 : Hindi
    All Credits Goes To [email protected] @ Team ExD (Thanks)

    Size: 697.17 MB

    Code:
    http://turbobit.net/86o72e2u50pi/SFKTNP_-_1CD-DVDRip-x264-ExD.mkv.html
    or
    http://rapidgator.net/file/47124736/SFKTNP_-_1CD-DVDRip-x264-ExD.mkv.html
    
    Subtitles:
    http://rapidgator.net/file/47121719/SFKTNP_-_1CD-DVDRip-x264-ExD.srt.html

 

 

Posting Permissions

  • You may not post new threads
  • You may not post replies
  • You may not post attachments
  • You may not edit your posts
  •