Results 1 to 1 of 1
  1. #1
    dR Rockers www.desirulez.net
    Join Date
    Aug 2011
    Posts
    5,859

    Cool Mere Dost Picture Abhi Baki Hai (2012) - 1/3 - DVDRip - x264 - SZY

    Follow us on Social Media












    Code:
    Video
    ID : 1
    Format : AVC
    Format/Info : Advanced Video Codec
    Format profile : [email protected]
    Format settings, CABAC : Yes
    Format settings, ReFrames : 16 frames
    Muxing mode : Header stripping
    Codec ID : V_MPEG4/ISO/AVC
    Duration : 2h 3mn
    Bit rate : 1 478 Kbps
    Width : 640 pixels
    Height : 272 pixels
    Display aspect ratio : 2.35:1
    Frame rate : 24.975 fps
    Color space : YUV
    Chroma subsampling : 4:2:0
    Bit depth : 8 bits
    Scan type : Progressive
    Bits/(Pixel*Frame) : 0.340
    Stream size : 1.25 GiB (91%)
    Writing library : x264 core 125 r2200 999b753
    
    Audio
    ID : 2
    Format : MPEG Audio
    Format version : Version 1
    Format profile : Layer 3
    Mode : Joint stereo
    Mode extension : MS Stereo
    Muxing mode : Header stripping
    Codec ID : A_MPEG/L3
    Codec ID/Hint : MP3
    Duration : 2h 3mn
    Bit rate mode : Constant
    Bit rate : 112 Kbps
    Channel(s) : 2 channels
    Sampling rate : 44.1 KHz
    Compression mode : Lossy
    Delay relative to video : 6ms
    Stream size : 98.8 MiB (7%)
    Writing library : LAME3.99.5
    
    Text
    ID : 3
    Format : UTF-8
    Codec ID : S_TEXT/UTF8
    Codec ID/Info : UTF-8 Plain Text














    SINGLE DIRECT FAST LINKS

    Code:
    http://extabit.com/file/2dubfyc8bxnfd/Mere Dost Picture Abhi Baki Hai (2012) DVDRip x264.mkv
    http://extabit.com/file/2dubfyc8by015/Mere Dost Picture Abhi Baki Hai (2012) DVDRip x264.srt
    Code:
    http://ryushare.com/2e79a55af136/Mere_Dost_Picture_Abhi_Baki_Hai_(2012)_DVDRip_x264.mkv
    http://ryushare.com/3134234a21e9/Mere_Dost_Picture_Abhi_Baki_Hai_(2012)_DVDRip_x264.srt

 

 

Posting Permissions

  • You may not post new threads
  • You may not post replies
  • You may not post attachments
  • You may not edit your posts
  •