Results 1 to 1 of 1
  1. #1
    Hot Member www.desirulez.net
    Join Date
    Sep 2009
    Posts
    1,215

    Thumbs up Ek Tha Tiger (2012) - 1/2 480p - DVDRip - x264 - AC3 5.1 - Esubs [DDR]

    Follow us on Social Media







    Ek Tha Tiger (2012)
    **480p DVDRip**




    [ iNFO ]

    Code:
    General
    Complete name                            : dvdrip-tiger-ddr.mkv
    Source                     : DDR
    Ripper                     : th3obr0
    
    Format                                   : Matroska
    Format version                           : Version 2
    File size                                : 2.20 GiB
    Duration                                 : 2h 13mn
    Overall bit rate                         : 2 362 Kbps
    Encoded date                             : UTC 2012-09-25 09:16:25
    Writing application                      : mkvmerge v5.7.0 ('The Whirlwind') built on Jul  8 2012 20:08:51
    Writing library                          : libebml v1.2.3 + libmatroska v1.3.0
    
    Video
    ID                                       : 1
    Format                                   : AVC
    Format/Info                              : Advanced Video Codec
    Format profile                           : [email protected]
    Format settings, CABAC                   : Yes
    Format settings, ReFrames                : 4 frames
    Codec ID                                 : V_MPEG4/ISO/AVC
    Duration                                 : 2h 13mn
    Bit rate                                 : 1 913 Kbps
    Width                                    : 864 pixels
    Height                                   : 368 pixels
    Display aspect ratio                     : 2.35:1
    Frame rate                               : 23.976 fps
    Color space                              : YUV
    Chroma subsampling                       : 4:2:0
    Bit depth                                : 8 bits
    Scan type                                : Progressive
    Bits/(Pixel*Frame)                       : 0.251
    Stream size                              : 1.74 GiB (79%)
    Title                                    : Ek Tha Tiger 480p [DDR]
    Writing library                          : x264 core 125 r2200 999b753
    Language                                 : Hindi
    Default                                  : Yes
    Forced                                   : No
    
    Audio
    ID                                       : 2
    Format                                   : AC-3
    Format/Info                              : Audio Coding 3
    Mode extension                           : CM (complete main)
    Format settings, Endianness              : Big
    Codec ID                                 : A_AC3
    Duration                                 : 2h 13mn
    Bit rate mode                            : Constant
    Bit rate                                 : 448 Kbps
    Channel(s)                               : 6 channels
    Channel positions                        : Front: L C R, Side: L R, LFE
    Sampling rate                            : 48.0 KHz
    Bit depth                                : 16 bits
    Compression mode                         : Lossy
    Stream size                              : 427 MiB (19%)
    Title                                    : Hindi 5.1 [DDR]
    Language                                 : Hindi
    Default                                  : Yes
    Forced                                   : No
    [ SCREENS ]
























    Code:
    http://www.sharpfile.com/t8974ywq3k/Ek_Tha_Tiger_(2012)_480p_12DVDRip_x264_AC3_[DDR].mkv.001.html
    http://www.sharpfile.com/nx9zhptgw84/Ek_Tha_Tiger_(2012)_480p_12DVDRip_x264_AC3_[DDR].mkv.002.html
    Code:
    http://turbobit.net/s6mxseemnpx9/Ek Tha Tiger (2012) 480p 12DVDRip x264 AC3 [DDR].mkv.001.html
    http://turbobit.net/fojxnfi15pss/Ek Tha Tiger (2012) 480p 12DVDRip x264 AC3 [DDR].mkv.002.html

 

 

Posting Permissions

  • You may not post new threads
  • You may not post replies
  • You may not post attachments
  • You may not edit your posts
  •