Results 1 to 1 of 1
  1. #1
    New Arrivals
    Join Date
    Sep 2012
    Posts
    1

    Thumbs up Pet.Pals.2012.DVDRip.Xvid-UnKnOwN

    Follow us on Social Media





    Pet.Pals.2012.DVDRip.Xvid-UnKnOwN



    imdb:

    Code:
    http://imdb.com/title/tt2305570/
    info:


    Encoded By .......:UnKnOwN
    Runtime ..........:1:35
    Language .........:English
    File Size ........:1.16gb
    Release Date ......... 2012
    Source ......... Your Gf
    File Type ......... Single AVI
    PS3 Compatible ....... Could care less
    Genre ......... Kids


    Video
    ID : 0
    Format : MPEG-4 Visual
    Format profile : Advanced [email protected]
    Format settings, BVOP : Yes
    Format settings, QPel : No
    Format settings, GMC : No warppoints
    Format settings, Matrix : Custom
    Codec ID : XVID
    Codec ID/Hint : XviD
    Duration : 1h 35mn
    Bit rate : 1581kbps
    Width : 680pixels
    Height : 400pixels
    Display aspect ratio : 16:9
    Frame rate : 29.997fps
    Color space : YUV
    Chroma subsampling : 4:2:0
    Bit depth : 8 bits
    Scan type : Progressive
    Bits/(Pixel*Frame) : 0.234
    Stream size : 892 MiB (86%)
    Writing library : XviD 1.2.1 (UTC 2008-12-04)


    Audio
    ID : 1
    Format : AC3
    Format/Info : MPEG
    Mode extension : CM (complete main)
    Codec ID : 2000
    Duration : 1h 35mn
    Bit rate mode : Constant
    Bit rate : 192kbps
    Channel(s) : 2channels
    Channel positions : Front: L R
    Sampling rate : 48.0 KHz
    Bit depth : 16 bits
    Stream size : 302 MiB
    Alignment : Aligned on interleaves
    Interleave, duration : 42 ms (1.00 video frame)
    Interleave, preload duration : 512 ms


    Belinda Keller ... (voice)
    Marc Matney ... (voice)
    Steve Rassin ... (voice)
    Shannon Settlemyre ... (voice)


    The Pet Pals are put to the test when the Evil Crow Witch is determined to drain the canals of Venice.
    Armed with a touch of magic, the Pet Pals combine their strengths to uncover the secret code before the Evil Witch does.

    screenshots:






    download:

    Code:
    http://ul.to/lyz8dcms
    http://ul.to/b0dmclsf

    password:

    Code:
    www.warez-box.com

 

 

Posting Permissions

  • You may not post new threads
  • You may not post replies
  • You may not post attachments
  • You may not edit your posts
  •