Results 1 to 2 of 2
  1. #1
    dR Rockers www.desirulez.net
    Join Date
    Aug 2011
    Posts
    5,859

    Cool Bol Bachchan (2012) - 1080p - DVDRip - AC3 - x264 - Team ExDr

    Follow us on Social Media








    Code:
    General
    Complete name                    : Bol Bachchan (2012) 1080p DVDRip AC3 x264 - mc {Team ExDRS}.mkv
    Source                       	: Thanks for Untouched DVD9 {Team ExD} by Kartik Bro..........
    Format                       	: Matroska
    File size                        : 3.19 GiB
    Duration                     	: 2h 23mn
    Overall bit rate             	: 3 185 Kbps
    
    Video
    ID                           	: 1
    Format                       	: AVC
    Format/Info                      : Advanced Video Codec
    Format profile               	: [email protected]
    Format settings, CABAC       	: Yes
    Format settings, ReFrames        : 4 frames
    Muxing mode                      : Container [email protected]
    Codec ID                     	: V_MPEG4/ISO/AVC
    Duration                     	: 2h 23mn
    Bit rate                     	: 2 738 Kbps
    Width                            : 1 920 pixels
    Height                       	: 816 pixels
    Display aspect ratio         	: 2.35:1
    Frame rate                   	: 23.976 fps
    Color space                      : YUV
    Chroma subsampling           	: 4:2:0
    Bit depth                        : 8 bits
    Scan type                        : Progressive
    Bits/(Pixel*Frame)           	: 0.073
    Stream size                      : 2.68 GiB (84%)
    Writing library                  : x264 core 125 r2200 999b753
    
    Audio
    ID                           	: 2
    Format                       	: AC-3
    Format/Info                      : Audio Coding 3
    Mode extension               	: CM (complete main)
    Codec ID                     	: A_AC3
    Duration                     	: 2h 23mn
    Bit rate mode                    : Constant
    Bit rate                     	: 448 Kbps
    Channel(s)                   	: 6 channels
    Channel positions                : Front: L C R, Side: L R, LFE
    Sampling rate                    : 48.0 KHz
    Bit depth                        : 16 bits
    Stream size                      : 460 MiB (14%)




    SCREENS









    SINGLE DIRECT FAST LINKS

    Code:
    http://extabit.com/file/2dubmc1ryp1kh/Bol Bachchan (2012) 1080p DVDRip AC3 x264 - mc {Team ExDRS}.mkv
    Code:
    http://ryushare.com/9a655480713/Bol_Bachchan_(2012)_1080p_DVDRip_AC3_x264_-_mc_{Team_ExDRS}.mkv

    1GB LINKS


    Code:
    http://extabit.com/file/2dubmc1noh3yp/Bol Bachchan (2012) 1080p DVDRip AC3 x264 - mc {Team ExDRS}.mkv.001
    http://extabit.com/file/2dubmc1noh0rl/Bol Bachchan (2012) 1080p DVDRip AC3 x264 - mc {Team ExDRS}.mkv.002
    http://extabit.com/file/2dubmc1noh0up/Bol Bachchan (2012) 1080p DVDRip AC3 x264 - mc {Team ExDRS}.mkv.003
    http://extabit.com/file/2dubmc1noicap/Bol Bachchan (2012) 1080p DVDRip AC3 x264 - mc {Team ExDRS}.mkv.004
    http://extabit.com/file/2dubmc1np4a9t/Bol Bachchan (2012) 1080p DVDRip AC3 x264 - mc {Team ExDRS}.mkv.005
    Code:
    http://ryushare.com/49c290b20095/Bol_Bachchan_(2012)_1080p_DVDRip_AC3_x264_-_mc_{Team_ExDRS}.mkv.001
    http://ryushare.com/4b9439fc23cc/Bol_Bachchan_(2012)_1080p_DVDRip_AC3_x264_-_mc_{Team_ExDRS}.mkv.002
    http://ryushare.com/931eaf57ef4/Bol_Bachchan_(2012)_1080p_DVDRip_AC3_x264_-_mc_{Team_ExDRS}.mkv.003
    http://ryushare.com/4b9439fc23cd/Bol_Bachchan_(2012)_1080p_DVDRip_AC3_x264_-_mc_{Team_ExDRS}.mkv.004
    http://ryushare.com/4e4eb7eb4fa9/Bol_Bachchan_(2012)_1080p_DVDRip_AC3_x264_-_mc_{Team_ExDRS}.mkv.005

  2. #2
    New Arrivals
    Join Date
    Sep 2012
    Posts
    1

    Default

    thnxxx

 

 

Posting Permissions

  • You may not post new threads
  • You may not post replies
  • You may not post attachments
  • You may not edit your posts
  •