Results 1 to 1 of 1
  1. #1

    Thumbs up Hum Dil De Chuke Sanam (1999) CL DVDRip - x264 - Untouched AC-3 - ESub [ExDT Exclusive]

    Follow us on Social Media





    Hum Dil De Chuke Sanam (1999) CL DVDRip - x264 - Untouched AC-3 - ESub [ExDT Exclusive]



    Code:
    Format                                   : Matroska
    Format version                           : Version 2
    File size                                : 1.78 GiB
    Duration                                 : 3h 8mn
    Overall bit rate                         : 1 354 Kbps
    Movie name                               : ExDT | Hum Dil De Chuke Sanam (1999) CL DVDRip x264 Untouched AC-3 ESub [ExDT Exclusive]
    
    Video
    ID                                       : 1
    Format                                   : AVC
    Format/Info                              : Advanced Video Codec
    Codec ID                                 : V_MPEG4/ISO/AVC
    Duration                                 : 3h 8mn
    Bit rate                                 : 909 Kbps
    Width                                    : 720 pixels
    Height                                   : 334 pixels
    Display aspect ratio                     : 2.2:1
    Frame rate                               : 23.976 fps
    Color space                              : YUV
    Chroma subsampling                       : 4:2:0
    Bit depth                                : 8 bits
    Scan type                                : Progressive
    Bits/(Pixel*Frame)                       : 0.158
    Stream size                              : 1.15 GiB (65%)
    
    Audio
    ID                                       : 2
    Format                                   : AC-3
    Format/Info                              : Audio Coding 3
    Codec ID                                 : A_AC3
    Duration                                 : 3h 8mn
    Bit rate mode                            : Constant
    Bit rate                                 : 448 Kbps
    Channel(s)                               : 6 channels
    Channel positions                        : Front: L C R, Side: L R, LFE
    Sampling rate                            : 48.0 KHz
    Bit depth                                : 16 bits
    Compression mode                         : Lossy
    Stream size                              : 603 MiB (33%)
    Language                                 : Hindi
    
    Text
    ID                                       : 3
    Format                                   : UTF-8
    Codec ID                                 : S_TEXT/UTF8
    Codec ID/Info                            : UTF-8 Plain Text
    Title                                    : ExDT
    Language                                 : English
    Default                                  : Yes
    Forced                                   : No
    Code:
    Sample
    http://www.sendspace.com/file/61h22d
    Code:
    Resume Support File[IDM+DAP Supported]
    http://ultramegabit.com/file/details/5yiHepYJkGE
    http://ultramegabit.com/file/details/8eothyVKSHY
    OR
    http://extabit.com/file/2a0fxat6blctx
    http://extabit.com/file/2a0fxat6blctx
    OR
    http://rapidshare.com/files/1654429883/Hum.Dil.De.Chuke.Sanam.1999.CL.DVDRip.x264.Untouched.AC3.ESub.ExDT.mkv.001
    http://rapidshare.com/files/3503977362/Hum.Dil.De.Chuke.Sanam.1999.CL.DVDRip.x264.Untouched.AC3.ESub.ExDT.mkv.002



 

 

Posting Permissions

  • You may not post new threads
  • You may not post replies
  • You may not post attachments
  • You may not edit your posts
  •