Results 1 to 1 of 1
  1. #1

    Thumbs up Hawas (1974) 1by5 x264 480p PAL MP3{Team ExD}

    Follow us on Social Media





    Hawas (1974) 1by5 x264 480p PAL MP3{Team ExD}


    Code:
    Format                           : Matroska
    File size                        : 817 MiB
    Duration                         : 2h 13mn
    Overall bit rate                 : 853 Kbps
    Encoded date                     : UTC 2012-09-18 21:26:28
    Writing application              : mkvmerge v5.6.0 ('Kenya Kane') built on May 27 2012 16:44:04
    Writing library                  : libebml v1.2.3 + libmatroska v1.3.0
    
    Video
    ID                               : 1
    Format                           : AVC
    Format/Info                      : Advanced Video Codec
    Format profile                   : [email protected]
    Format settings, CABAC           : Yes
    Format settings, ReFrames        : 4 frames
    Muxing mode                      : Header stripping
    Codec ID                         : V_MPEG4/ISO/AVC
    Duration                         : 2h 13mn
    Bit rate                         : 756 Kbps
    Nominal bit rate                 : 646 Kbps
    Width                            : 640 pixels
    Height                           : 480 pixels
    Display aspect ratio             : 4:3
    Frame rate                       : 25.000 fps
    Color space                      : YUV
    Chroma subsampling               : 4:2:0
    Bit depth                        : 8 bits
    Scan type                        : Progressive
    Bits/(Pixel*Frame)               : 0.098
    Stream size                      : 724 MiB (89%)
    Writing library                  : x264 core 125 r2200 999b753
    
    Audio
    ID                               : 2
    Format                           : MPEG Audio
    Format version                   : Version 1
    Format profile                   : Layer 3
    Mode                             : Joint stereo
    Muxing mode                      : Header stripping
    Codec ID                         : A_MPEG/L3
    Codec ID/Hint                    : MP3
    Duration                         : 1h 8mn
    Bit rate mode                    : Constant
    Bit rate                         : 80.0 Kbps
    Channel(s)                       : 2 channels
    Sampling rate                    : 32.0 KHz
    Compression mode                 : Lossy
    Stream size                      : 39.1 MiB (5%)
    Writing library                  : LAME3.99r
    
    http://www.imdb.com/title/tt0304147/
    http://en.wikipedia.org/wiki/Hawas










    Code:
    Resume Support File[IDM+DAP Supported]
    http://ultramegabit.com/file/details/qQ51iuXI4lI
    OR
    http://extabit.com/file/2a0fx9xqhpsut
    OR
    http://rapidshare.com/files/153597665/Hawas.1974.1.5.x264.Team.ExD.mkv



 

 

Posting Permissions

  • You may not post new threads
  • You may not post replies
  • You may not post attachments
  • You may not edit your posts
  •