Results 1 to 1 of 1
  1. #1

    Thumbs up Bol Bachchan [2012][email protected] [EXD Exclusive]

    Follow us on Social Media





    Bol Bachchan [2012][email protected] [EXD Exclusive]
















    Code:
    Rip Information
    
    Format                                   : Matroska
    Format version                           : Version 2
    File size                                : 696 MiB
    Duration                                 : 2h 23mn
    Overall bit rate                         : 677 Kbps
    Movie name                               : Bol Bachchan  [2012][email protected] [EXD Exclusive]
    
    
    Video
    
    Format                                   : AVC
    Format/Info                              : Advanced Video Codec
    Format profile                           : [email protected]
    Format settings, CABAC                   : Yes
    Format settings, ReFrames                : 4 frames
    Muxing mode                              : Header stripping
    Codec ID                                 : V_MPEG4/ISO/AVC
    Duration                                 : 2h 23mn
    Bit rate                                 : 548 Kbps
    Width                                    : 688 pixels
    Height                                   : 288 pixels
    Display aspect ratio                     : 2.40:1
    Frame rate                               : 29.970 fps
    Color space                              : YUV
    Chroma subsampling                       : 4:2:0
    Bit depth                                : 8 bits
    Scan type                                : Progressive
    Bits/(Pixel*Frame)                       : 0.092
    Stream size                              : 550 MiB (79%)
    Title                                    : [email protected]
    Writing library                          : x264 core 125 r2200 999b753
    
    
    Audio 1
    
    Format                                   : AC-3
    Format/Info                              : Audio Coding 3
    Mode extension                           : CM (complete main)
    Format settings, Endianness              : Big
    Muxing mode                              : Header stripping
    Codec ID                                 : A_AC3
    Duration                                 : 2h 23mn
    Bit rate mode                            : Constant
    Bit rate                                 : 128 Kbps
    Channel(s)                               : 2 channels
    Channel positions                        : Front: L R
    Sampling rate                            : 48.0 KHz
    Bit depth                                : 16 bits
    Compression mode                         : Lossy
    Stream size                              : 131 MiB (19%)
    Title                                    : [email protected]
    Language                                 : Hindi
    Sample
    Code:
    http://rapidshare.com/files/3341632256/Bol%20Bachchan%20%20_2012_.Sample.mkv
    Code:
    Resume Support File[IDM+DAP Supported]
    http://ultramegabit.com/file/details/c8dbS8jT6Ks
    http://ultramegabit.com/file/details/dz_I8Wp5yok
    OR
    http://extabit.com/file/2a0fx9z399rad
    http://extabit.com/file/2a0fx9z399o5x
    OR
    http://rapidshare.com/files/693064727/Bol.Bachchan.2012.1CD.DVDRip.AC3.EXD.mkv
    http://rapidshare.com/files/1476733777/Bol.Bachchan.2012.1CD.DVDRip.AC3.EXD.srt



 

 

Posting Permissions

  • You may not post new threads
  • You may not post replies
  • You may not post attachments
  • You may not edit your posts
  •