Results 1 to 1 of 1
  1. #1
    dR Rockers www.desirulez.net
    Join Date
    Aug 2011
    Posts
    5,859

    Cool Barfi! (2012) - 2.18GB - 1/2 - DVDSCREENER - x264 - AC3 - [DDR]

    Follow us on Social Media











    Code:
    General
    
    Source                     : DDR
    Ripper                     : th3obr0
    Complete name                            : dvdscr-barfi-ddr.mkv
    
    Format                                   : Matroska
    Format version                           : Version 2
    File size                                : 2.10 GiB
    Duration                                 : 2h 28mn
    Overall bit rate                         : 2 019 Kbps
    Encoded date                             : UTC 2012-09-18 04:34:26
    Writing application                      : mkvmerge v5.7.0 ('The Whirlwind') built on Jul  8 2012 20:08:51
    Writing library                          : libebml v1.2.3 + libmatroska v1.3.0
    
    Video
    ID                                       : 1
    Format                                   : AVC
    Format/Info                              : Advanced Video Codec
    Format profile                           : [email protected]
    Format settings, CABAC                   : Yes
    Format settings, ReFrames                : 4 frames
    Codec ID                                 : V_MPEG4/ISO/AVC
    Duration                                 : 2h 28mn
    Bit rate                                 : 1 787 Kbps
    Nominal bit rate                         : 1 972 Kbps
    Width                                    : 864 pixels
    Height                                   : 320 pixels
    Display aspect ratio                     : 2.700
    Frame rate                               : 25.000 fps
    Color space                              : YUV
    Chroma subsampling                       : 4:2:0
    Bit depth                                : 8 bits
    Scan type                                : Progressive
    Bits/(Pixel*Frame)                       : 0.259
    Stream size                              : 1.86 GiB (89%)
    Title                                    : Barfi [DDR]
    Writing library                          : x264 core 125 r2200 999b753
    Language                                 : Hindi
    Default                                  : Yes
    Forced                                   : No
    
    Audio
    ID                                       : 2
    Format                                   : AC-3
    Format/Info                              : Audio Coding 3
    Mode extension                           : CM (complete main)
    Format settings, Endianness              : Big
    Codec ID                                 : A_AC3
    Duration                                 : 2h 28mn
    Bit rate mode                            : Constant
    Bit rate                                 : 192 Kbps
    Channel(s)                               : 2 channels
    Channel positions                        : Front: L R
    Sampling rate                            : 48.0 KHz
    Bit depth                                : 16 bits
    Compression mode                         : Lossy
    Delay relative to video                  : 10ms
    Stream size                              : 204 MiB (10%)
    Title                                    : Hindi [DDR]
    Language                                 : Hindi
    Default                                  : Yes
    Forced                                   : No
















    [ NOTiCE ]

    1. Initial seeding is from a 10mbit line.

    2. All screens are taken from the this rip itself. None were taken from the AVS script.

    3. Don't be naughty! Do seed to help fellow members download this release.


    [ RiPPER'S NOTES ]

    >>Tests Performed<<
    - Audio In-Sync? O.K.
    - Subs In-Sync? N/A
    - Compatibility? VLC and MPC - O.K..




    SINGLE DIRECT FAST LINK

    Code:
    http://extabit.com/file/2dubmdtxagmny/dvdscr-barfi-ddr.mkv

    Code:
    http://ryushare.com/256156e7d27d/dvdscr-barfi-ddr.mkv





    500MB LINKS

    Code:
    http://extabit.com/file/2dubmdtxb2u72/dvdscr-barfi-ddr.mkv.001
    http://extabit.com/file/2dubmdtt0wb7i/dvdscr-barfi-ddr.mkv.002
    http://extabit.com/file/2dubmdtxb2u5a/dvdscr-barfi-ddr.mkv.003
    http://extabit.com/file/2dubmdtt0wkjy/dvdscr-barfi-ddr.mkv.004
    http://extabit.com/file/2dubmdtt1j1pa/dvdscr-barfi-ddr.mkv.005
    Code:
    http://ryushare.com/931eaf57a62/dvdscr-barfi-ddr.mkv.001
    http://ryushare.com/281bd4d6f247/dvdscr-barfi-ddr.mkv.002
    http://ryushare.com/2904a97c03c1/dvdscr-barfi-ddr.mkv.003
    http://ryushare.com/29ed7e2113dc/dvdscr-barfi-ddr.mkv.004
    http://ryushare.com/264a2b8cd27e/dvdscr-barfi-ddr.mkv.005

 

 

Posting Permissions

  • You may not post new threads
  • You may not post replies
  • You may not post attachments
  • You may not edit your posts
  •