Results 1 to 1 of 1
  1. #1
    Hot Member www.desirulez.net
    Join Date
    Oct 2011
    Posts
    536

    Thumbs up Barfi! (2012) - 1/2 - DVDScr - x264 - AC3 [DDR]

    Follow us on Social Media





    Barfi! (2012) - 1/2 - DVDScr - x264 - AC3 [DDR]




    Barfi! (2012) DVDSCREENER



    Code:
    Writing library                          : libebml v1.2.3 + libmatroska v1.3.0
    
    Video
    ID                                       : 1
    Format                                   : AVC
    Format/Info                              : Advanced Video Codec
    Format profile                           : [email protected]
    Format settings, CABAC                   : Yes
    Format settings, ReFrames                : 4 frames
    Codec ID                                 : V_MPEG4/ISO/AVC
    Duration                                 : 2h 28mn
    Bit rate                                 : 1 787 Kbps
    Nominal bit rate                         : 1 972 Kbps
    Width                                    : 864 pixels
    Height                                   : 320 pixels
    Display aspect ratio                     : 2.700
    Frame rate                               : 25.000 fps
    Color space                              : YUV
    Chroma subsampling                       : 4:2:0
    Bit depth                                : 8 bits
    Scan type                                : Progressive
    Bits/(Pixel*Frame)                       : 0.259
    Stream size                              : 1.86 GiB (89%)
    Title                                    : Barfi [DDR]
    Writing library                          : x264 core 125 r2200 999b753
    Language                                 : Hindi
    Default                                  : Yes
    Forced                                   : No
    
    Audio
    ID                                       : 2
    Format                                   : AC-3
    Format/Info                              : Audio Coding 3
    Mode extension                           : CM (complete main)
    Format settings, Endianness              : Big
    Codec ID                                 : A_AC3
    Duration                                 : 2h 28mn
    Bit rate mode                            : Constant
    Bit rate                                 : 192 Kbps
    Channel(s)                               : 2 channels
    Channel positions                        : Front: L R
    Sampling rate                            : 48.0 KHz
    Bit depth                                : 16 bits
    Compression mode                         : Lossy
    Delay relative to video                  : 10ms
    Stream size                              : 204 MiB (10%)
    Title                                    : Hindi [DDR]
    Language                                 : Hindi
    Default                                  : Yes
    Forced                                   : No










    SAMPLE | SIZE: 15.85 MB
    Code:
    http://extabit.com/file/279qs19aizff2/smpl-dvdscr-barfi-ddr.mkv
    http://turbobit.net/azfd89yngx64/smpl-dvdscr-barfi-ddr.mkv.html
    http://rapidgator.net/file/43607021/smpl-dvdscr-barfi-ddr.mkv.html
    -----DOWNLOAD-----

    -----SINGLE LINK | SIZE: 2.10 GB-----

    EXTABIT
    Code:
    http://extabit.com/file/279qs19aicc6m/dvdscr-barfi-ddr.mkv
    RAPIDGATOR
    Code:
    http://rapidgator.net/file/43608103/dvdscr-barfi-ddr.mkv.html
    TURBOBIT
    Code:
    http://turbobit.net/88tyc4allfjn/dvdscr-barfi-ddr.mkv.html
    =======================
    Thanks For Download !!!
    =======================

 

 

Posting Permissions

  • You may not post new threads
  • You may not post replies
  • You may not post attachments
  • You may not edit your posts
  •