Results 1 to 1 of 1
  1. #1

    Default jadu teri nazar- darr (720p)

    Follow us on Social Media





    jadu teri nazar- darr -720p








    complete name :jadu teri nazar.MP4
    Format : MPEG-4
    Format profile : Base Media / Version 2
    Codec ID : mp42
    File size : 75.2 MiB
    Duration : 4mn 37s
    Overall bit rate : 2 271 Kbps


    Video
    ID : 1
    Format : AVC
    Format/Info : Advanced Video Codec
    Format profile : [email protected]
    Format settings, CABAC : Yes
    Format settings, ReFrames : 1 frame
    Format settings, GOP : M=1, N=60
    Codec ID : avc1
    Codec ID/Info : Advanced Video Coding
    Duration : 4mn 37s
    Bit rate mode : Variable
    Bit rate : 2 139 Kbps
    Maximum bit rate : 7 142 Kbps
    Width : 1 280 pixels
    Height : 720 pixels
    Display aspect ratio : 16:9
    Frame rate mode : Constant
    Frame rate : 25.000 fps
    Color space : YUV
    Chroma subsampling : 4:2:0
    Bit depth : 8 bits
    Scan type : Progressive
    Bits/(Pixel*Frame) : 0.093
    Stream size : 70.8 MiB (94%)


    Audio
    ID : 2
    Format : AAC
    Format/Info : Advanced Audio Codec
    Format profile : LC
    Codec ID : 40
    Duration : 4mn 37s
    Bit rate mode : Variable
    Bit rate : 128 Kbps
    Maximum bit rate : 158 Kbps
    Channel(s) : 2 channels
    Channel positions : Front: L R
    Sampling rate : 44.1 KHz
    Compression mode : Lossy
    Stream size : 4.23 MiB (6%)

    Code:
    http://www.sharpfile.com/qcmztpv2f7d/jadu-teri-nazar.MP4.html
    
    http://rapidgator.net/file/43209834/jadu_teri_nazar.MP4.html

 

 

Posting Permissions

  • You may not post new threads
  • You may not post replies
  • You may not post attachments
  • You may not edit your posts
  •