Results 1 to 1 of 1
  1. #1

    Default Chapa Chapa Charkha Chale - Maachis 1996 - HD

    Follow us on Social Media





    Chapa Chapa Charkha Chale - Maachis 1996 - HD



    info:
    Complete name : Chapa Chapa Charkha Chale - Maachis 1996 - HD.mp4
    Format : MPEG-4
    Format profile : Base Media / Version 2
    Codec ID : mp42
    File size : 78.2 MiB
    Duration : 4mn 12s
    Overall bit rate : 2 599 Kbps


    Video
    ID : 1
    Format : AVC
    Format/Info : Advanced Video Codec
    Format profile : [email protected]
    Format settings, CABAC : Yes
    Format settings, ReFrames : 1 frame
    Format settings, GOP : M=1, N=60
    Codec ID : avc1
    Codec ID/Info : Advanced Video Coding
    Duration : 4mn 12s
    Bit rate mode : Variable
    Bit rate : 2 444 Kbps
    Maximum bit rate : 5 423 Kbps
    Width : 1 280 pixels
    Height : 720 pixels
    Display aspect ratio : 16:9
    Frame rate mode : Constant
    Frame rate : 30.000 fps
    Color space : YUV
    Chroma subsampling : 4:2:0
    Bit depth : 8 bits
    Scan type : Progressive
    Bits/(Pixel*Frame) : 0.088
    Stream size : 73.6 MiB (94%)


    Audio
    ID : 2
    Format : AAC
    Format/Info : Advanced Audio Codec
    Format profile : LC
    Codec ID : 40
    Duration : 4mn 12s
    Bit rate mode : Variable
    Bit rate : 152 Kbps
    Maximum bit rate : 180 Kbps
    Channel(s) : 2 channels
    Channel positions : Front: L R
    Sampling rate : 44.1 KHz
    Compression mode : Lossy
    Stream size : 4.57 MiB (6%)


    Code:
    http://rapidgator.net/file/43209071/Chapa_Chapa_Charkha_Chale_-_Maachis_1996_-_HD.mp4.html
    
    http://www.sharpfile.com/6zmx8yw2t9f/Chapa-Chapa-Charkha-Chale---Maachis-1996---HD.mp4.html

 

 

Posting Permissions

  • You may not post new threads
  • You may not post replies
  • You may not post attachments
  • You may not edit your posts
  •