Results 1 to 1 of 1
  1. #1

    Thumbs up Ragada [2011] 720p x264 BluRay Rip Dual Audio [Telugu - Hindi] [email protected]= [ExDT]

    Follow us on Social Media





    Ragada [2011] 720p x264 BluRay Rip Dual Audio [Telugu - Hindi] [email protected]= [ExDT]



    Code:
    General
    Format                                                  : Matroska
    Format version                                          : Version 2
    File size                               : 1.79 GiB
    Duration                                                : 2h 20mn
    Overall bit rate                                        : 1 817 Kbps
    Movie name                                              : Ragada [2011] 720p x264 BluRay Rip Dual Audio [Telugu - Hindi] [email protected]= [ExDT]
    
    
    Video
    Format                                                  : AVC
    Duration                                                : 2h 20mn
    Bit rate                                                : 1 237 Kbps
    Width                                   : 1 280 pixels
    Height                                                  : 544 pixels
    Display aspect ratio                                    : 2.35:1
    Frame rate mode                         : Constant
    Frame rate                                              : 25.000 fps
    
    
    Audio #1
    Format                                                  : AC-3
    Duration                                                : 2h 20mn
    Bit rate mode                           : Constant
    Bit rate                                                : 384 Kbps
    Channel(s)                                              : 6 channels
    Channel positions                       : Front: L C R, Side: L R, LFE
    Sampling rate                           : 48.0 KHz
    Stream size                             : 386 MiB (21%)
    Title                                   : [email protected]=
    Language                                                : Telugu
    Default                                 : No
    Forced                                                  : Yes
    
    Audio #2
    Format                                                  : MPEG Audio
    Codec ID/Hint                           : MP3
    Duration                                                : 2h 20mn
    Bit rate mode                           : Constant
    Bit rate                                                : 128 Kbps
    Channel(s)                                              : 2 channels
    Sampling rate                           : 44.1 KHz
    Compression mode                                        : Lossy
    Stream size                             : 129 MiB (7%)
    Title                                   : [email protected]=
    Language                                                : Hindi
    Default                                 : Yes
    Forced                                                  : No












    Code:
    Sample
    http://extabit.com/file/2a0fxclb2inv9
    Code:
    Resume Support File[IDM+DAP Supported]
    http://ultramegabit.com/file/details/XbBdWeMTcWA
    http://ultramegabit.com/file/details/QIhrv0iyB2k
    OR
    http://extabit.com/file/2a0fxclb1ve9x
    http://extabit.com/file/2a0fxclb1w6r9



 

 

Posting Permissions

  • You may not post new threads
  • You may not post replies
  • You may not post attachments
  • You may not edit your posts
  •