Results 1 to 1 of 1
  1. #1

    Default yaad teri aati hai - afsana pyar ka 720p

    Follow us on Social Media





    yaad teri aati hai - afsana pyar ka 720p

    info:
    Complete name : yaad teri aati hai.MP4
    Format : MPEG-4
    Format profile : Base Media / Version 2
    Codec ID : mp42
    File size : 84.3 MiB
    Duration : 6mn 38s
    Overall bit rate : 1 775 Kbps


    Video
    ID : 1
    Format : AVC
    Format/Info : Advanced Video Codec
    Format profile : [email protected]
    Format settings, CABAC : Yes
    Format settings, ReFrames : 1 frame
    Format settings, GOP : M=1, N=45
    Codec ID : avc1
    Codec ID/Info : Advanced Video Coding
    Duration : 6mn 38s
    Bit rate mode : Variable
    Bit rate : 1 641 Kbps
    Maximum bit rate : 4 730 Kbps
    Width : 960 pixels
    Height : 720 pixels
    Display aspect ratio : 4:3
    Frame rate mode : Variable
    Frame rate : 29.970 fps
    Minimum frame rate : 29.412 fps
    Maximum frame rate : 200.000 fps
    Color space : YUV
    Chroma subsampling : 4:2:0
    Bit depth : 8 bits
    Scan type : Progressive
    Bits/(Pixel*Frame) : 0.079
    Stream size : 77.9 MiB (92%)

    Audio
    ID : 2
    Format : AAC
    Format/Info : Advanced Audio Codec
    Format profile : LC
    Codec ID : 40
    Duration : 6mn 38s
    Bit rate mode : Variable
    Bit rate : 128 Kbps
    Maximum bit rate : 139 Kbps
    Channel(s) : 2 channels
    Channel positions : Front: L R
    Sampling rate : 44.1 KHz
    Compression mode : Lossy
    Stream size : 6.08 MiB (7%)
    screenshots:


    download
    Code:
    http://www.sharpfile.com/2y4kvbpm/yaad-teri-aati-hai.MP4.html

 

 

Posting Permissions

  • You may not post new threads
  • You may not post replies
  • You may not post attachments
  • You may not edit your posts
  •