Results 1 to 1 of 1
  1. #1
    dR Rockers www.desirulez.net
    Join Date
    Aug 2011
    Posts
    5,859

    Cool Cocktail (2012) - 720p - DVDRip - X264 - AC3 - Subs - BWTV

    Follow us on Social Media















    Code:
    General
    Complete name                            : Cocktail (2012) 720P DVD Rip X264 AC3 Subs BWTV.mkv
    Format                                   : Matroska
    Format version                           : Version 2
    File size                                : 4.37 GiB
    Duration                                 : 2h 24mn
    Overall bit rate                         : 4 322 Kbps
    Encoded date                             : UTC 2012-09-14 18:47:33
    Writing application                      : mkvmerge v5.2.1 ('A Far Off Place') built on Jan  2 2012 23:21:10
    Writing library                          : libebml v1.2.3 + libmatroska v1.3.0
    
    Video
    ID                                       : 1
    Format                                   : AVC
    Format/Info                              : Advanced Video Codec
    Format profile                           : [email protected]
    Format settings, CABAC                   : Yes
    Format settings, ReFrames                : 4 frames
    Codec ID                                 : V_MPEG4/ISO/AVC
    Duration                                 : 2h 24mn
    Bit rate                                 : 3 872 Kbps
    Width                                    : 1 280 pixels
    Height                                   : 544 pixels
    Display aspect ratio                     : 2.35:1
    Frame rate                               : 23.976 fps
    Color space                              : YUV
    Chroma subsampling                       : 4:2:0
    Bit depth                                : 8 bits
    Scan type                                : Progressive
    Bits/(Pixel*Frame)                       : 0.232
    Stream size                              : 3.83 GiB (88%)
    Writing library                          : x264 core 120 r2164 da19765
    Encoding settings                        : cabac=1 / ref=3 / deblock=1:0:0 / analyse=0x3:0x113 / me=hex / subme=7 / psy=1 / psy_rd=1.00:0.00 / mixed_ref=1 / me_range=16 / chroma_me=1 / trellis=1 / 8x8dct=1 / cqm=0 / deadzone=21,11 / fast_pskip=1 / chroma_qp_offset=-2 / threads=12 / sliced_threads=0 / nr=0 / decimate=1 / interlaced=0 / bluray_compat=0 / constrained_intra=0 / bframes=3 / b_pyramid=2 / b_adapt=1 / b_bias=0 / direct=1 / weightb=1 / open_gop=0 / weightp=2 / keyint=240 / keyint_min=23 / scenecut=40 / intra_refresh=0 / rc_lookahead=40 / rc=2pass / mbtree=1 / bitrate=3872 / ratetol=1.0 / qcomp=0.60 / qpmin=0 / qpmax=69 / qpstep=4 / cplxblur=20.0 / qblur=0.5 / ip_ratio=1.40 / aq=1:1.00
    Language                                 : English
    Default                                  : Yes
    Forced                                   : No
    
    Audio
    ID                                       : 2
    Format                                   : AC-3
    Format/Info                              : Audio Coding 3
    Mode extension                           : CM (complete main)
    Codec ID                                 : A_AC3
    Duration                                 : 2h 24mn
    Bit rate mode                            : Constant
    Bit rate                                 : 448 Kbps
    Channel(s)                               : 6 channels
    Channel positions                        : Front: L C R, Side: L R, LFE
    Sampling rate                            : 48.0 KHz
    Bit depth                                : 16 bits
    Compression mode                         : Lossy
    Stream size                              : 464 MiB (10%)
    Default                                  : Yes
    Forced                                   : No








    SINGLE DIRECT FAST LINK

    Code:
    http://extabit.com/file/2dubm3a3nw907/Cocktail.(2012).720P.DVDRip.X264.AC3.Subs.BWTV.mkv
    Code:
    http://ryushare.com/b0140353cbb/Cocktail.(2012).720P.DVDRip.X264.AC3.Subs.BWTV.mkv

    1GB LINKS

    Code:
    http://extabit.com/file/2dubm3a82gppj/Cocktail.(2012).720P.DVDRip.X264.AC3.Subs.BWTV.mkv.001
    http://extabit.com/file/2dubm3acldsw7/Cocktail.(2012).720P.DVDRip.X264.AC3.Subs.BWTV.mkv.001
    http://extabit.com/file/2dubm39z9birb/Cocktail.(2012).720P.DVDRip.X264.AC3.Subs.BWTV.mkv.002
    http://extabit.com/file/2dubm39z9atdj/Cocktail.(2012).720P.DVDRip.X264.AC3.Subs.BWTV.mkv.003
    http://extabit.com/file/2dubm39z9ycdj/Cocktail.(2012).720P.DVDRip.X264.AC3.Subs.BWTV.mkv.004
    http://extabit.com/file/2dubm39z5kl2v/Cocktail.(2012).720P.DVDRip.X264.AC3.Subs.BWTV.mkv.005
    http://extabit.com/file/2dubm39z5l0uf/Cocktail.(2012).720P.DVDRip.X264.AC3.Subs.BWTV.sub
    http://extabit.com/file/2dubm39z5l77r/Cocktail.(2012).720P.DVDRip.X264.AC3.Subs.BWTV.idx
    Code:
    
    http://ryushare.com/a186b902f9a/Cocktail.(2012).720P.DVDRip.X264.AC3.Subs.BWTV.mkv.001
    http://ryushare.com/ea492c96087/Cocktail.(2012).720P.DVDRip.X264.AC3.Subs.BWTV.mkv.002
    http://ryushare.com/cd2e97f4b9d/Cocktail.(2012).720P.DVDRip.X264.AC3.Subs.BWTV.mkv.003
    http://ryushare.com/cd2e97f4b9c/Cocktail.(2012).720P.DVDRip.X264.AC3.Subs.BWTV.mkv.004
    http://ryushare.com/bea14da4485/Cocktail.(2012).720P.DVDRip.X264.AC3.Subs.BWTV.mkv.005
    http://ryushare.com/ea492c96085/Cocktail.(2012).720P.DVDRip.X264.AC3.Subs.BWTV.sub
    http://ryushare.com/cd2e97f4b97/Cocktail.(2012).720P.DVDRip.X264.AC3.Subs.BWTV.idx

 

 

Posting Permissions

  • You may not post new threads
  • You may not post replies
  • You may not post attachments
  • You may not edit your posts
  •