Results 1 to 1 of 1
  1. #1
    dR Rockers www.desirulez.net
    Join Date
    Jun 2011
    Posts
    2,793

    Thumbs up CockTail 2012 1CD DVDRip x264 AC3 [email protected] mkv 700mb

    Follow us on Social Media









    Format : Matroska
    Format version : Version 2
    File size : 696 MiB
    Duration : 2h 24mn
    Overall bit rate : 672 Kbps

    Video

    Format : AVC
    Format/Info : Advanced Video Codec
    Format settings, CABAC : Yes
    Format settings, ReFrames : 5 frames
    Duration : 2h 24mn
    Bit rate : 543 Kbps
    Width : 688 pixels
    Height : 288 pixels
    Display aspect ratio : 2.40:1
    Frame rate : 23.976 fps
    Color space : YUV
    Chroma subsampling : 4:2:0
    Bit depth : 8 bits
    Scan type : Progressive
    Bits/(Pixel*Frame) : 0.114
    Stream size : 550 MiB (79%)
    Title : [email protected]




    Audio

    Format : AC-3
    Format/Info : Audio Coding 3
    Mode extension : CM (complete main)
    Format settings, Endianness : Big
    Muxing mode : Header stripping
    Codec ID : A_AC3
    Duration : 2h 24mn
    Bit rate mode : Constant
    Bit rate : 128 Kbps
    Channel(s) : 2 channels
    Channel positions : Front: L R
    Sampling rate : 48.0 KHz
    Bit depth : 16 bits
    Compression mode : Lossy
    Stream size : 133 MiB (19%)
    Title : [email protected]
    Language : Hindi
















    (Resume Supported for Free Users)
    Code:
    http://www.queenshare.com/j4dki8sf99j8

 

 

Posting Permissions

  • You may not post new threads
  • You may not post replies
  • You may not post attachments
  • You may not edit your posts
  •