Results 1 to 1 of 1
  1. #1
    dR Rockers www.desirulez.net
    Join Date
    Aug 2011
    Posts
    5,859

    Cool Jism 2 (2012) 720P DVD Rip X264 AC3 Subs BWTV

    Follow us on Social Media













    Code:
    General
    Unique ID                                : 240487096940195573954264567560845022525 (0xB4EC214FC78A52839A2E3BB0150A553D)
    Complete name                            : C:\Users\root\Downloads\Jism 2 (2012) 720P DVD Rip X264 AC3 Subs BWTV\Jism 2 (2012) 720P DVD Rip X264 AC3 Subs BWTV.mkv
    Format                                   : Matroska
    Format version                           : Version 2
    File size                                : 3.50 GiB
    Duration                                 : 2h 4mn
    Overall bit rate                         : 4 027 Kbps
    Encoded date                             : UTC 2012-09-14 06:36:44
    Writing application                      : mkvmerge v5.6.0 ('Kenya Kane') built on May 27 2012 16:44:04
    Writing library                          : libebml v1.2.3 + libmatroska v1.3.0
    
    Video
    ID                                       : 1
    Format                                   : AVC
    Format/Info                              : Advanced Video Codec
    Format profile                           : [email protected]
    Format settings, CABAC                   : Yes
    Format settings, ReFrames                : 4 frames
    Codec ID                                 : V_MPEG4/ISO/AVC
    Duration                                 : 2h 4mn
    Bit rate                                 : 3 578 Kbps
    Width                                    : 1 280 pixels
    Height                                   : 544 pixels
    Display aspect ratio                     : 2.35:1
    Frame rate                               : 23.976 fps
    Color space                              : YUV
    Chroma subsampling                       : 4:2:0
    Bit depth                                : 8 bits
    Scan type                                : Progressive
    Bits/(Pixel*Frame)                       : 0.214
    Stream size                              : 3.04 GiB (87%)
    Writing library                          : x264 core 125 r2200 999b753
    Encoding settings                        : cabac=1 / ref=3 / deblock=1:0:0 / analyse=0x3:0x113 / me=hex / subme=7 / psy=1 / psy_rd=1.00:0.00 / mixed_ref=1 / me_range=16 / chroma_me=1 / trellis=1 / 8x8dct=1 / cqm=0 / deadzone=21,11 / fast_pskip=1 / chroma_qp_offset=-2 / threads=12 / lookahead_threads=2 / sliced_threads=0 / nr=0 / decimate=1 / interlaced=0 / bluray_compat=0 / constrained_intra=0 / bframes=3 / b_pyramid=2 / b_adapt=1 / b_bias=0 / direct=1 / weightb=1 / open_gop=0 / weightp=2 / keyint=240 / keyint_min=23 / scenecut=40 / intra_refresh=0 / rc_lookahead=40 / rc=2pass / mbtree=1 / bitrate=3578 / ratetol=1.0 / qcomp=0.60 / qpmin=0 / qpmax=69 / qpstep=4 / cplxblur=20.0 / qblur=0.5 / ip_ratio=1.40 / aq=1:1.00
    Language                                 : English
    Default                                  : Yes
    Forced                                   : No
    
    Audio
    ID                                       : 2
    Format                                   : AC-3
    Format/Info                              : Audio Coding 3
    Mode extension                           : CM (complete main)
    Codec ID                                 : A_AC3
    Duration                                 : 2h 4mn
    Bit rate mode                            : Constant
    Bit rate                                 : 448 Kbps
    Channel(s)                               : 6 channels
    Channel positions                        : Front: L C R, Side: L R, LFE
    Sampling rate                            : 48.0 KHz
    Bit depth                                : 16 bits
    Compression mode                         : Lossy
    Stream size                              : 398 MiB (11%)
    Default                                  : Yes
    Forced                                   : No






    SINGLE DIRECT FAST LINKS

    Code:
    http://extabit.com/file/2dubm5wodboqx/Jism 2 (2012) 720P DVD Rip X264 AC3 Subs BWTV.mkv
    Code:
    http://ryushare.com/4364c02e4215/Jism_2_(2012)_720P_DVD_Rip_X264_AC3_Subs_BWTV.mkv

    700MB LINKS

    Code:
    http://extabit.com/file/2dubm5yj3mtux/Jism 2 (2012) 720P DVD Rip X264 AC3 Subs BWTV.mkv.001
    http://extabit.com/file/2dubm5yj3n395/Jism 2 (2012) 720P DVD Rip X264 AC3 Subs BWTV.mkv.002
    http://extabit.com/file/2dubm5yj3037d/Jism 2 (2012) 720P DVD Rip X264 AC3 Subs BWTV.mkv.003
    http://extabit.com/file/2dubm5yj30361/Jism 2 (2012) 720P DVD Rip X264 AC3 Subs BWTV.mkv.004
    http://extabit.com/file/2dubm5yj3mtvd/Jism 2 (2012) 720P DVD Rip X264 AC3 Subs BWTV.mkv.005
    http://extabit.com/file/2dubm5yj48ik9/Jism 2 (2012) 720P DVD Rip X264 AC3 Subs BWTV.mkv.006
    http://extabit.com/file/2dubm5yj48lmx/Jism 2 (2012) 720P DVD Rip X264 AC3 Subs BWTV.srt
    Code:
    http://ryushare.com/1330ba02baa6/Jism_2_(2012)_720P_DVD_Rip_X264_AC3_Subs_BWTV.mkv.001
    http://ryushare.com/14198ea7c7b2/Jism_2_(2012)_720P_DVD_Rip_X264_AC3_Subs_BWTV.mkv.002
    http://ryushare.com/cd2e97f4a29/Jism_2_(2012)_720P_DVD_Rip_X264_AC3_Subs_BWTV.mkv.003
    http://ryushare.com/419316e420fc/Jism_2_(2012)_720P_DVD_Rip_X264_AC3_Subs_BWTV.mkv.004
    http://ryushare.com/444d94d352e8/Jism_2_(2012)_720P_DVD_Rip_X264_AC3_Subs_BWTV.mkv.005
    http://ryushare.com/4364c02e4212/Jism_2_(2012)_720P_DVD_Rip_X264_AC3_Subs_BWTV.mkv.006
    http://ryushare.com/444d94d352e6/Jism_2_(2012)_720P_DVD_Rip_X264_AC3_Subs_BWTV.srt

 

 

Posting Permissions

  • You may not post new threads
  • You may not post replies
  • You may not post attachments
  • You may not edit your posts
  •