Results 1 to 1 of 1
  1. #1

    Thumbs up Jism-2 (2012) - 1CDRip - DVDRip - X264 - AAC - [EXD]

    Follow us on Social Media





    Jism-2 (2012) - 1CDRip - DVDRip - X264 - AAC - [EXD]


    Code:
    Rip Information
    
    Format                                   : Matroska
    Format version                           : Version 2
    File size                                : 697 MiB
    Duration                                 : 2h 4mn
    Overall bit rate                         : 782 Kbps
    Movie name                               : Jism-2.[2012]-1CD-DVDRip By [email protected] [EXD Exclusive]
    
    Video
    
    Format                                   : AVC
    Format/Info                              : Advanced Video Codec
    Format profile                           : [email protected]
    Format settings, CABAC                   : Yes
    Format settings, ReFrames                : 5 frames
    Muxing mode                              : Header stripping
    Codec ID                                 : V_MPEG4/ISO/AVC
    Duration                                 : 2h 4mn
    Bit rate                                 : 653 Kbps
    Width                                    : 672 pixels
    Height                                   : 288 pixels
    Display aspect ratio                     : 2.35:1
    Frame rate                               : 29.970 fps
    Color space                              : YUV
    Chroma subsampling                       : 4:2:0
    Bit depth                                : 8 bits
    Scan type                                : Progressive
    Bits/(Pixel*Frame)                       : 0.113
    Stream size                              : 569 MiB (82%)
    Title                                    : [email protected]
    Writing library                          : x264 core 125 r2200 999b753
    
    Audio
    
    Format                                   : AC-3
    Format/Info                              : Audio Coding 3
    Mode extension                           : CM (complete main)
    Format settings, Endianness              : Big
    Muxing mode                              : Header stripping
    Codec ID                                 : A_AC3
    Duration                                 : 2h 4mn
    Bit rate mode                            : Constant
    Bit rate                                 : 128 Kbps
    Channel(s)                               : 2 channels
    Channel positions                        : Front: L R
    Sampling rate                            : 48.0 KHz
    Bit depth                                : 16 bits
    Compression mode                         : Lossy
    Stream size                              : 114 MiB (16%)
    Title                                    : [email protected]
    Language                                 : Hindi
    Default                                  : Yes












    Code:
    Sample
    http://ultramegabit.com/file/details/ucjrHjniuz8
    Code:
    Resume Support File[IDM+DAP Supported]
    http://ultramegabit.com/file/details/GT6XPKYLlK0
    http://ultramegabit.com/file/details/-0u2U1OpHBw
    OR
    http://rapidshare.com/files/137963773/Jism.2.2012.1CD.DVDRip.EXD.mkv
    http://rapidshare.com/files/977502000/Jism-2.2012.1CD.DVDRip.EXD.srt



 

 

Posting Permissions

  • You may not post new threads
  • You may not post replies
  • You may not post attachments
  • You may not edit your posts
  •