Results 1 to 1 of 1
  1. #1
    dR Rockers www.desirulez.net
    Join Date
    Aug 2011
    Posts
    5,859

    Cool Mere Dost Picture Abhi Baki Hai (2012) - 700MB -1CDRip - DVD - [EXD Exclusive]

    Follow us on Social Media














    Code:
    Rip Information
    
    Format                                   : Matroska Format version                           : Version 2 File size                                : 697 MiB Duration                                 : 2h 3mn Overall bit rate                         : 789 Kbps Movie name                               : Mere Dost Picture Abhi Baki Hai [2012][email protected] [EXD Exclusive]
    
    Video
    
    Format                                   : AVC Format/Info                              : Advanced Video Codec Format profile                           : [email protected] Format settings, CABAC                   : Yes Format settings, ReFrames                : 5 frames Muxing mode                              : Header stripping Codec ID                                 : V_MPEG4/ISO/AVC Duration                                 : 2h 3mn Bit rate                                 : 660 Kbps Width                                    : 720 pixels Height                                   : 304 pixels Display aspect ratio                     : 2.35:1 Frame rate                               : 29.970 fps Color space                              : YUV Chroma subsampling                       : 4:2:0 Bit depth                                : 8 bits Scan type                                : Progressive Bits/(Pixel*Frame)                       : 0.101 Stream size                              : 570 MiB (82%) Title                                    : [email protected] Writing library                          : x264 core 125 r2200 999b753
    
    Audio
    
    Format                                   : AC-3 Format/Info                              : Audio Coding 3 Mode extension                           : CM (complete main) Format settings, Endianness              : Big Muxing mode                              : Header stripping Codec ID                                 : A_AC3 Duration                                 : 2h 3mn Bit rate mode                            : Constant Bit rate                                 : 128 Kbps Channel(s)                               : 2 channels Channel positions                        : Front: L R Sampling rate                            : 48.0 KHz Bit depth                                : 16 bits Compression mode                         : Lossy Stream size                              : 113 MiB (16%) Title                                    : [email protected] Language                                 : Hindi










    SINGLE DIRECT FAST LINKS




    Code:
    http://extabit.com/file/2dubm68ab9if2/Mere.Dost.Picture.Abhi.Baki.Hai.[2012].1CD.DVDRip.[EXD.Exclusive].mkv
    Code:
    http://ryushare.com/931eaf5700e/Mere.Dost.Picture.Abhi.Baki.Hai.[2012].1CD.DVDRip.[EXD.Exclusive].mkv

 

 

Posting Permissions

  • You may not post new threads
  • You may not post replies
  • You may not post attachments
  • You may not edit your posts
  •