Results 1 to 1 of 1
  1. #1
    dR Rockers www.desirulez.net
    Join Date
    Aug 2011
    Posts
    5,859

    Cool Cocktail (2012) 1CD DVD Rip Xvid MP3 Subs BWTV

    Follow us on Social Media















    Code:
    General
    Complete name                            : Cocktail (2012) 1CD DVD Rip Xvid MP3 Subs BWTV.avi
    Format                                   : AVI
    Format/Info                              : Audio Video Interleave
    File size                                : 698 MiB
    Duration                                 : 2h 24mn
    Overall bit rate                         : 674 Kbps
    Writing library                          : VirtualDub build 32661/release
    
    Video
    ID                                       : 0
    Format                                   : MPEG-4 Visual
    Format profile                           : Advanced [email protected]
    Format settings, BVOP                    : 2
    Format settings, QPel                    : Yes
    Format settings, GMC                     : No warppoints
    Format settings, Matrix                  : Default (H.263)
    Codec ID                                 : XVID
    Codec ID/Hint                            : XviD
    Duration                                 : 2h 24mn
    Bit rate                                 : 585 Kbps
    Width                                    : 608 pixels
    Height                                   : 256 pixels
    Display aspect ratio                     : 2.40:1
    Frame rate                               : 23.976 fps
    Color space                              : YUV
    Chroma subsampling                       : 4:2:0
    Bit depth                                : 8 bits
    Scan type                                : Progressive
    Compression mode                         : Lossy
    Bits/(Pixel*Frame)                       : 0.157
    Stream size                              : 606 MiB (87%)
    Writing library                          : XviD 1.2.1 (UTC 2008-12-04)
    
    Audio
    ID                                       : 1
    Format                                   : MPEG Audio
    Format version                           : Version 1
    Format profile                           : Layer 3
    Mode                                     : Joint stereo
    Codec ID                                 : 55
    Codec ID/Hint                            : MP3
    Duration                                 : 2h 24mn
    Bit rate mode                            : Constant
    Bit rate                                 : 80.0 Kbps
    Channel(s)                               : 2 channels
    Sampling rate                            : 32.0 KHz
    Compression mode                         : Lossy
    Stream size                              : 82.9 MiB (12%)
    Alignment                                : Split accross interleaves
    Interleave, duration                     : 42 ms (1.00 video frame)
    Interleave, preload duration             : 500 ms
    Writing library                          : LAME3.99r
    Encoding settings                        : -m j -V 4 -q 2 -lowpass 13.5 -b 80










    SINGLE DIRECT FAST LINKS


    Code:
    http://extabit.com/file/2dubm68ab9y9a/Cocktail.(2012).1CD.DVDRip.Xvid.MP3.Subs.BWTV.avi
    http://extabit.com/file/2dubm68abx4oe/Cocktail.(2012).1CD.DVDRip.Xvid.MP3.Subs.BWTV.idx
    http://extabit.com/file/2dubm68abx7pq/Cocktail.(2012).1CD.DVDRip.Xvid.MP3.Subs.BWTV.sub
    Code:
    http://ryushare.com/98f0cd1105d/Cocktail.(2012).1CD.DVDRip.Xvid.MP3.Subs.BWTV.avi
    http://ryushare.com/977c45a2824/Cocktail.(2012).1CD.DVDRip.Xvid.MP3.Subs.BWTV.idx
    http://ryushare.com/977c45a2826/Cocktail.(2012).1CD.DVDRip.Xvid.MP3.Subs.BWTV.sub

 

 

Posting Permissions

  • You may not post new threads
  • You may not post replies
  • You may not post attachments
  • You may not edit your posts
  •