Results 1 to 1 of 1
  1. #1
    dR Rockers www.desirulez.net
    Join Date
    Aug 2011
    Posts
    5,859

    Cool Kyaa Super Kool Hain Hum (2012) - 700MB - 1CD - DVDRip - [EXD Exclusive]

    Follow us on Social Media














    Code:
    Rip Information
    
    Format                                   : Matroska Format version                           : Version 2 File size                                : 697 MiB Duration                                 : 2h 16mn Overall bit rate                         : 715 Kbps Movie name                               : Kyaa Super Kool Hain Hum [2012]-1CD-DVDRip By [email protected] [EXD Exclusive]
    
    Video
    
    Format                                   : AVC Format/Info                              : Advanced Video Codec Format profile                           : [email protected] Format settings, CABAC                   : Yes Format settings, ReFrames                : 5 frames Muxing mode                              : Header stripping Codec ID                                 : V_MPEG4/ISO/AVC Duration                                 : 2h 16mn Bit rate                                 : 586 Kbps Width                                    : 688 pixels Height                                   : 288 pixels Display aspect ratio                     : 2.40:1 Frame rate                               : 23.976 fps Color space                              : YUV Chroma subsampling                       : 4:2:0 Bit depth                                : 8 bits Scan type                                : Progressive Bits/(Pixel*Frame)                       : 0.123 Stream size                              : 558 MiB (80%) Title                                    : [email protected] Writing library                          : x264 core 125 r2200 999b753
    
    Audio
    
    Format                                   : AC-3 Format/Info                              : Audio Coding 3 Mode extension                           : CM (complete main) Format settings, Endianness              : Big Muxing mode                              : Header stripping Codec ID                                 : A_AC3 Duration                                 : 2h 16mn Bit rate mode                            : Constant Bit rate                                 : 128 Kbps Channel(s)                               : 2 channels Channel positions                        : Front: L R Sampling rate                            : 48.0 KHz Bit depth                                : 16 bits Compression mode                         : Lossy Stream size                              : 125 MiB (18%) Title                                    : [email protected] Language                                 : Hindi














    Code:
    http://extabit.com/file/2dubm51tu9mdd/Kyaa Super Kool Hain Hum [2012][email protected] [EXD Exclusive].mkv
    http://extabit.com/file/2dubm51tqioox/Kyaa Super Kool Hain Hum [2012][email protected] [EXD Exclusive].srt

    Code:
    http://ryushare.com/1502634cd65c/Kyaa_Super_Kool_Hain_Hum_[2012][email protected]_[EXD_Exclusive].mkv
    http://ryushare.com/17bce13c0752/Kyaa_Super_Kool_Hain_Hum_[2012][email protected]_[EXD_Exclusive].srt

 

 

Posting Permissions

  • You may not post new threads
  • You may not post replies
  • You may not post attachments
  • You may not edit your posts
  •