Results 1 to 1 of 1
  1. #1
    Hot Member www.desirulez.net
    Join Date
    Oct 2011
    Posts
    536

    Thumbs up Kyaa Super Kool Hain Hum (2012) 1CD DVD Rip Xvid MP3 Subs - BWTV

    Follow us on Social Media





    Kyaa Super Kool Hain Hum (2012) 1CD DVD Rip Xvid MP3 Subs - BWTV



    RELEASE INFO
    Code:
    General
    Complete name                            : Kyaa Super Kool Hain Hum (2012) 1CD DVD Rip Xvid MP3 Subs BWTV.avi
    Format                                   : AVI
    Format/Info                              : Audio Video Interleave
    File size                                : 698 MiB
    Duration                                 : 2h 16mn
    Overall bit rate                         : 716 Kbps
    Writing library                          : VirtualDub build 32661/release
    
    Video
    ID                                       : 0
    Format                                   : MPEG-4 Visual
    Format profile                           : Advanced [email protected]
    Format settings, BVOP                    : 2
    Format settings, QPel                    : Yes
    Format settings, GMC                     : No warppoints
    Format settings, Matrix                  : Default (H.263)
    Codec ID                                 : XVID
    Codec ID/Hint                            : XviD
    Duration                                 : 2h 16mn
    Bit rate                                 : 610 Kbps
    Width                                    : 608 pixels
    Height                                   : 256 pixels
    Display aspect ratio                     : 2.40:1
    Frame rate                               : 23.976 fps
    Color space                              : YUV
    Chroma subsampling                       : 4:2:0
    Bit depth                                : 8 bits
    Scan type                                : Progressive
    Compression mode                         : Lossy
    Bits/(Pixel*Frame)                       : 0.164
    Stream size                              : 595 MiB (85%)
    Writing library                          : XviD 1.2.1 (UTC 2008-12-04)
    
    Audio
    ID                                       : 1
    Format                                   : MPEG Audio
    Format version                           : Version 1
    Format profile                           : Layer 3
    Mode                                     : Joint stereo
    Mode extension                           : MS Stereo
    Codec ID                                 : 55
    Codec ID/Hint                            : MP3
    Duration                                 : 2h 16mn
    Bit rate mode                            : Constant
    Bit rate                                 : 96.0 Kbps
    Channel(s)                               : 2 channels
    Sampling rate                            : 32.0 KHz
    Compression mode                         : Lossy
    Stream size                              : 93.6 MiB (13%)
    Alignment                                : Split accross interleaves
    Interleave, duration                     : 42 ms (1.00 video frame)
    Interleave, preload duration             : 500 ms
    Writing library                          : LAME3.99r
    Encoding settings                        : -m j -V 4 -q 2 -lowpass 15.1 -b 96











    -----DOWNLOAD-----

    -----SINGLE LINK | SIZE: 697.84 MB-----

    EXTABIT
    Code:
    http://extabit.com/file/279qrpuwdribg/Kyaa.Super.Kool.Hain.Hum.(2012).1CD.DVD.Rip.Xvid.MP3.Subs.BWTV.avi
    
    http://extabit.com/file/279qrpuweef58/Kyaa.Super.Kool.Hain.Hum.(2012).1CD.DVD.Rip.Xvid.MP3.Subs.BWTV.srt
    RAPIDGATOR
    Code:
    http://rapidgator.net/file/41936278/Kyaa.Super.Kool.Hain.Hum.(2012).1CD.DVD.Rip.Xvid.MP3.Subs.BWTV.avi.html
    
    http://rapidgator.net/file/41935872/Kyaa.Super.Kool.Hain.Hum.(2012).1CD.DVD.Rip.Xvid.MP3.Subs.BWTV.srt.html
    TURBOBIT
    Code:
    http://turbobit.net/xlqimiu0vgbe/Kyaa.Super.Kool.Hain.Hum.(2012).1CD.DVD.Rip.Xvid.MP3.Subs.BWTV.avi.html
    
    http://turbobit.net/clpxaay69fbb/Kyaa.Super.Kool.Hain.Hum.(2012).1CD.DVD.Rip.Xvid.MP3.Subs.BWTV.srt.html
    =======================
    Thanks For Download !!!
    =======================

 

 

Posting Permissions

  • You may not post new threads
  • You may not post replies
  • You may not post attachments
  • You may not edit your posts
  •