Results 1 to 1 of 1
  1. #1
    Hot Member www.desirulez.net
    Join Date
    Feb 2011
    Location
    Bulletproof IP
    Posts
    1,189

    Default Raaz 3 (2012) (Audio Cleaned) - DVDScr XviD AC3 590MB Team EXD

    Follow us on Social Media





    Raaz 3
    2012
    DVDScr XviD AC3 590MB Team EXD

    (Audio Cleaned)


    Code:
    Format : AVI
    Format/Info : Audio Video Interleave
    File size : 595 MiB
    Duration : 2h 26mn
    Overall bit rate : 569 Kbps
    Writing application : VirtualDubMod 1.5.4.1 (build 2178/release)
    Writing library : VirtualDubMod build 2178/release
    
    Video
    ID : 0
    Format : AVC
    Format/Info : Advanced Video Codec
    Format profile : [email protected]
    Format settings, CABAC : Yes
    Format settings, ReFrames : 4 frames
    Codec ID : H264
    Duration : 2h 26mn
    Bit rate : 495 Kbps
    Width : 640 pixels
    Height : 272 pixels
    Display aspect ratio : 2.35:1
    Frame rate mode : Variable
    Frame rate : 23.976 fps
    Color space : YUV
    Chroma subsampling : 4:2:0
    Bit depth : 8 bits
    Scan type : Progressive
    Bits/(Pixel*Frame) : 0.119
    Stream size : 518 MiB (87%)
    
    
    Audio
    ID : 1
    Format : AC-3
    Format/Info : Audio Coding 3
    Mode extension : CM (complete main)
    Codec ID : 2000
    Duration : 2h 26mn
    Bit rate mode : Constant
    Bit rate : 64.0 Kbps
    Channel(s) : 2 channels
    Channel positions : Front: L R
    Sampling rate : 32.0 KHz
    Bit depth : 16 bits
    Compression mode : Lossy
    Stream size : 67.0 MiB (11%)
    ..:: Screenshots ::..















    All Credits Goes To John @ Team EXD (Thanks)

    Size: 595.17 MB

    Code:
    http://turbobit.net/nm0swzfwqa3q/Raaz3-2012_-_Audio-Cleaned-DVDScr-XviD-AC3-590MB-Team-EXD.avi.html
    or
    http://rapidgator.net/file/41525064/Raaz3-2012_-_Audio-Cleaned-DVDScr-XviD-AC3-590MB-Team-EXD.avi.html

 

 

Posting Permissions

  • You may not post new threads
  • You may not post replies
  • You may not post attachments
  • You may not edit your posts
  •