Results 1 to 1 of 1
  1. #1
    Super Member www.desirulez.net
    Join Date
    Jan 2012
    Posts
    408

    Thumbs up Raaz 3 (2012) (Audio Cleaned) - SCam Rip - 450MB - MPEG - ExDRS

    Follow us on Social Media





    [CENTER]Raaz 3 (2012) (Audio Cleaned) - SCam Rip - MPEG-PS - ExDRS



    Code:
    Format : MPEG-PS
    File size : 463 MiB
    Duration : 1h 53mn
    Overall bit rate : 568 Kbps
    Video #224
    ID : 224 (0xE0)
    Format : MPEG Video
    Format version : Version 2
    Format profile : [email protected]
    Format settings, BVOP : Yes
    Format settings, Matrix : Default
    Format settings, GOP : M=3, N=12
    Duration : 1h 53mn
    Bit rate mode : Variable
    Bit rate : 429 Kbps
    Nominal bit rate : 2 519 Mbps
    Width : 352 pixels
    Height : 288 pixels
    Display aspect ratio : 16:9
    Frame rate : 25.000 fps
    Standard : PAL
    Color space : YUV
    Chroma subsampling : 4:2:0
    Bit depth : 8 bits
    Scan type : Progressive
    Compression mode : Lossy
    Bits/(Pixel*Frame) : 0.169
    Stream size : 350 MiB (75%)
    
    
    
    Audio #192
    ID : 192 (0xC0)
    Format : MPEG Audio
    Format version : Version 1
    Format profile : Layer 2
    Duration : 1h 53mn
    Bit rate mode : Constant
    Bit rate : 128 Kbps
    Channel(s) : 2 channels
    Sampling rate : 44.1 KHz
    Compression mode : Lossy
    Stream size : 104 MiB (23%)







    Code:
    http://fileuplo.de/gjda1bd8l5ux.html
    
    http://glumbouploads.com/f9nbbxu0ut9l.html

 

 

Posting Permissions

  • You may not post new threads
  • You may not post replies
  • You may not post attachments
  • You may not edit your posts
  •