Results 1 to 1 of 1
  1. #1

    Thumbs up Carry On Jatta [2012].480p.DVDRip.x264.Punjabi.6Ch.by [email protected] [ExD Exclusive]

    Follow us on Social Media





    Carry On Jatta [2012].480p.DVDRip.x264.Punjabi.6Ch.by [email protected] [ExD Exclusive]














    Sample

    Code:
    Rip Information
    
    Format                                   : Matroska
    Format version                           : Version 2
    File size                                : 696 MiB
    Duration                                 : 2h 17mn
    Overall bit rate                         : 708 Kbps
    Movie name                               : Carry On Jatta [2012].480p.DVDRip.x264.Punjabi.6Ch.by [email protected] [ExD Exclusive]
    Encoded date                             : UTC 2012-09-05 18:33:49
    Writing application                      : mkvmerge v5.8.0 ('No Sleep / Pillow') built on Sep  2 2012 15:37:04
    
    
    Video
    
    Format                                   : AVC
    Format/Info                              : Advanced Video Codec
    Format profile                           : [email protected]
    Format settings, CABAC                   : Yes
    Format settings, ReFrames                : 4 frames
    Muxing mode                              : Header stripping
    Codec ID                                 : V_MPEG4/ISO/AVC
    Duration                                 : 2h 17mn
    Bit rate                                 : 579 Kbps
    Width                                    : 720 pixels
    Height                                   : 308 pixels
    Display aspect ratio                     : 2.35:1
    Frame rate                               : 29.970 fps
    Color space                              : YUV
    Chroma subsampling                       : 4:2:0
    Bit depth                                : 8 bits
    Scan type                                : Progressive
    Bits/(Pixel*Frame)                       : 0.087
    Stream size                              : 556 MiB (80%)
    Title                                    : [email protected]
    Writing library                          : x264 core 125 r2200 999b753
    
    
    Audio
    
    Format                                   : AC-3
    Format/Info                              : Audio Coding 3
    Mode extension                           : CM (complete main)
    Format settings, Endianness              : Big
    Muxing mode                              : Header stripping
    Codec ID                                 : A_AC3
    Duration                                 : 2h 17mn
    Bit rate mode                            : Constant
    Bit rate                                 : 128 Kbps
    Channel(s)                               : 6 channels
    Channel positions                        : Front: L C R, Side: L R, LFE
    Sampling rate                            : 48.0 KHz
    Bit depth                                : 16 bits
    Compression mode                         : Lossy
    Stream size                              : 126 MiB (18%)
    Title                                    : [email protected]
    Language                                 : Panjabi
    Default                                  : Yes
    Code:
    http://www.sharpfile.com/r6kbd7y9c24/Carry.On.Jatta.2012.480p.DVDRip.x264.Punjabi.6Ch.by.ExD.Exclusive.mkv.html
    OR
    http://rapidshare.com/files/827375702/Carry.On.Jatta.2012.480p.DVDRip.x264.Punjabi.6Ch.by.ExD.Exclusive.mkv



 

 

Posting Permissions

  • You may not post new threads
  • You may not post replies
  • You may not post attachments
  • You may not edit your posts
  •