Results 1 to 2 of 2
  1. #1
    dR Rockers www.desirulez.net
    Join Date
    Aug 2011
    Posts
    5,859

    Cool Carry On Jatta (2012) - 720p - DVDRip - x264 - 6Ch - [ExD Exclusive]

    Follow us on Social Media







    Code:
    Rip Information
    
    Format                                   : Matroska Format version                           : Version 2 File size                                : 1.46 GiB Duration                                 : 2h 17mn Overall bit rate                         : 1 522 Kbps Movie name                               : Carry On Jatta [2012].720p.DVDRip.x264.Punjabi.6Ch.by [email protected] [ExD Exclusive] Encoded date                             : UTC 2012-09-05 16:43:04
    
    Video
    
    Format                                   : AVC Format/Info                              : Advanced Video Codec Format profile                           : [email protected] Format settings, CABAC                   : Yes Format settings, ReFrames                : 4 frames Muxing mode                              : Header stripping Codec ID                                 : V_MPEG4/ISO/AVC Duration                                 : 2h 17mn Bit rate                                 : 1 073 Kbps Width                                    : 1 280 pixels Height                                   : 544 pixels Display aspect ratio                     : 2.35:1 Frame rate                               : 29.970 fps Color space                              : YUV Chroma subsampling                       : 4:2:0 Bit depth                                : 8 bits Scan type                                : Progressive Bits/(Pixel*Frame)                       : 0.051 Stream size                              : 1.00 GiB (69%) Title                                    : [email protected] Writing library                          : x264 core 125 r2200 999b753
    
    Audio
    
    Format                                   : AC-3 Format/Info                              : Audio Coding 3 Mode extension                           : CM (complete main) Format settings, Endianness              : Big Muxing mode                              : Header stripping Codec ID                                 : A_AC3 Duration                                 : 2h 17mn Bit rate mode                            : Constant Bit rate                                 : 448 Kbps Channel(s)                               : 6 channels Channel positions                        : Front: L C R, Side: L R, LFE Sampling rate                            : 48.0 KHz Bit depth                                : 16 bits Compression mode                         : Lossy Stream size                              : 440 MiB (29%) Title                                    : [email protected] Language                                 : Panjabi














    Code:
    http://extabit.com/file/2dvm7qvpdu6je/Carry.On.Jatta[2012].[email protected][ExD.Exclusive].mkv
    http://extabit.com/file/2dvm7qvpbyuga/Carry.On.Jatta[2012].[email protected][ExD.Exclusive].srt
    Code:
    http://ryushare.com/15eb37f1d65c/Carry.On.Jatta[2012].[email protected][ExD.Exclusive].mkv
    http://ryushare.com/14198ea7b632/Carry.On.Jatta[2012].[email protected][ExD.Exclusive].srt

  2. #2
    dR Contributor www.desirulez.net
    Join Date
    Aug 2012
    Posts
    123

    Default

    this movies roks

 

 

Posting Permissions

  • You may not post new threads
  • You may not post replies
  • You may not post attachments
  • You may not edit your posts
  •