Results 1 to 1 of 1
  1. #1

    Thumbs up Krishna Aur Kans (2012) 480p BRRip x264 Dual Audio 6Ch Hindi+English - EXD

    Follow us on Social Media





    Krishna Aur Kans (2012) 480p BRRip x264 Dual Audio 6Ch Hindi+English - EXD


    Code:
    Format                                   : Matroska
    Format version                           : Version 2
    File size                                : 705 MiB
    Duration                                 : 1h 58mn
    Overall bit rate                         : 835 Kbps
    Movie name                               : Krishna Aur Kans [2012].480p.BRRip.x264.[Dual Audio].6Ch.[Hindi+English].by [email protected] [ExD Exclusive]
    
    Format                                   : AVC
    Format/Info                              : Advanced Video Codec
    Format profile                           : [email protected]
    Format settings, CABAC                   : Yes
    Format settings, ReFrames                : 4 frames
    Muxing mode                              : Header stripping
    Codec ID                                 : V_MPEG4/ISO/AVC
    Duration                                 : 1h 58mn
    Bit rate                                 : 578 Kbps
    Width                                    : 720 pixels
    Height                                   : 308 pixels
    Display aspect ratio                     : 2.35:1
    Frame rate                               : 23.976 fps
    Color space                              : YUV
    Chroma subsampling                       : 4:2:0
    Bit depth                                : 8 bits
    Scan type                                : Progressive
    Bits/(Pixel*Frame)                       : 0.109
    Stream size                              : 475 MiB (67%)
    Title                                    : [email protected]
    Writing library                          : x264 core 125 r2200 999b753
    
    Format                                   : AC-3
    Format/Info                              : Audio Coding 3
    Mode extension                           : CM (complete main)
    Format settings, Endianness              : Big
    Muxing mode                              : Header stripping
    Codec ID                                 : A_AC3
    Duration                                 : 1h 58mn
    Bit rate mode                            : Constant
    Bit rate                                 : 128 Kbps
    Channel(s)                               : 6 channels
    Channel positions                        : Front: L C R, Side: L R, LFE
    Sampling rate                            : 48.0 KHz
    Bit depth                                : 16 bits
    Compression mode                         : Lossy
    Stream size                              : 108 MiB (15%)
    Title                                    : [email protected]
    Language                                 : Hindi
    Default                                  : Yes
    
    Format                                   : AC-3
    Format/Info                              : Audio Coding 3
    Mode extension                           : CM (complete main)
    Format settings, Endianness              : Big
    Muxing mode                              : Header stripping
    Codec ID                                 : A_AC3
    Duration                                 : 1h 58mn
    Bit rate mode                            : Constant
    Bit rate                                 : 128 Kbps
    Channel(s)                               : 6 channels
    Channel positions                        : Front: L C R, Side: L R, LFE
    Sampling rate                            : 48.0 KHz
    Bit depth                                : 16 bits
    Compression mode                         : Lossy
    Delay relative to video                  : 15ms
    Stream size                              : 108 MiB (15%)
    Title                                    : [email protected]
    Language                                 : English












    Code:
    http://www.sharpfile.com/qwny68fkr2g4/Krishna.Aur.Kans.2012.480p.BRRip.x264_EXD.mkv.html
    OR
    http://rapidshare.com/files/51732471/Krishna.Aur.Kans.2012.480p.BRRip.x264_EXD.mkv



 

 

Posting Permissions

  • You may not post new threads
  • You may not post replies
  • You may not post attachments
  • You may not edit your posts
  •