Results 1 to 1 of 1
  1. #1
    dR Rockers www.desirulez.net
    Join Date
    Aug 2011
    Posts
    5,859

    Cool Krishna Aur Kans (2012) 720p BRRip x264 Dual Audio 6Ch Hindi+English - [EXD]

    Follow us on Social Media










    Code:
    Rip Information
    
    Format                                   : Matroska Format version                           : Version 2 File size                                : 1.36 GiB Duration                                 : 1h 58mn Overall bit rate                         : 1 654 Kbps Movie name                               : Krishna Aur Kans [2012].720p.BRRip.x264.[Dual Audio].6Ch.[Hindi+English].by [email protected] [ExD Exclusive]  Encoded date                             : UTC 2012-09-04 10:37:39
    
    Video
    
    Format                                   : AVC Format/Info                              : Advanced Video Codec Format profile                           : [email protected] Format settings, CABAC                   : Yes Format settings, ReFrames                : 4 frames Muxing mode                              : Header stripping Codec ID                                 : V_MPEG4/ISO/AVC Duration                                 : 1h 58mn Bit rate                                 : 1 205 Kbps Width                                    : 1 280 pixels Height                                   : 544 pixels Display aspect ratio                     : 2.35:1 Frame rate                               : 23.976 fps Color space                              : YUV Chroma subsampling                       : 4:2:0 Bit depth                                : 8 bits Scan type                                : Progressive Bits/(Pixel*Frame)                       : 0.072 Stream size                              : 991 MiB (71%) Title                                    : [email protected] Writing library                          : x264 core 125 r2200 999b753
    
    Audio 1
    
    Format                                   : AC-3 Format/Info                              : Audio Coding 3 Mode extension                           : CM (complete main) Format settings, Endianness              : Big Muxing mode                              : Header stripping Codec ID                                 : A_AC3 Duration                                 : 1h 58mn Bit rate mode                            : Constant Bit rate                                 : 224 Kbps Channel(s)                               : 6 channels Channel positions                        : Front: L C R, Side: L R, LFE Sampling rate                            : 48.0 KHz Bit depth                                : 16 bits Compression mode                         : Lossy Stream size                              : 189 MiB (14%) Title                                    : [email protected] Language                                 : Hindi Default                                  : Yes
    
    Audio 2
    
    Format                                   : AC-3 Format/Info                              : Audio Coding 3 Mode extension                           : CM (complete main) Format settings, Endianness              : Big Muxing mode                              : Header stripping Codec ID                                 : A_AC3 Duration                                 : 1h 58mn Bit rate mode                            : Constant Bit rate                                 : 224 Kbps Channel(s)                               : 6 channels Channel positions                        : Front: L C R, Side: L R, LFE Sampling rate                            : 48.0 KHz Bit depth                                : 16 bits Compression mode                         : Lossy Stream size                              : 189 MiB (14%) Title                                    : [email protected] Language                                 : English














    Code:
    http://extabit.com/file/2dvm7tif0vymi/Krishna Aur Kans [2012].720p.BRRip.x264.[Dual Audio].6Ch.[Hindi+English].by [email protected] [ExD Exclusive].mkv
    http://extabit.com/file/2dvm7tiev92tm/Krishna Aur Kans [2012].720p.BRRip.x264.[Dual Audio].6Ch.[Hindi+English].by [email protected] [ExD Exclusive].srt
    Code:
    http://ryushare.com/53c3b3c92e19/Krishna_Aur_Kans_[2012].720p.BRRip.x264.[Dual_Audio].6Ch.[Hindi+English].[email protected]_[ExD_Exclusive].mkv
    http://ryushare.com/5767065d707e/Krishna_Aur_Kans_[2012].720p.BRRip.x264.[Dual_Audio].6Ch.[Hindi+English].[email protected]_[ExD_Exclusive].srt

 

 

Posting Permissions

  • You may not post new threads
  • You may not post replies
  • You may not post attachments
  • You may not edit your posts
  •