Results 1 to 1 of 1
  1. #1

    Default Joker (2012) HDCAM Rip VAS89

    Follow us on Social Media








    Joker (2012) HDCAM Rip - VAS89





    Code:
    Format                                   : AVI
    Format/Info                              : Audio Video Interleave
    File size                                : 695 MiB
    Duration                                 : 1h 23mn
    Overall bit rate                         : 1 162 Kbps
    
    Video
    ID                                       : 0
    Format                                   : MPEG-4 Visual
    Format profile                           : Advanced [email protected]
    Format settings, BVOP                    : 2
    Format settings, QPel                    : No
    Format settings, GMC                     : No warppoints
    Format settings, Matrix                  : Default (H.263)
    Codec ID                                 : XVID
    Codec ID/Hint                            : XviD
    Duration                                 : 1h 23mn
    Bit rate                                 : 1 028 Kbps
    Width                                    : 640 pixels
    Height                                   : 272 pixels
    Display aspect ratio                     : 2.35:1
    Frame rate                               : 25.000 fps
    Color space                              : YUV
    Chroma subsampling                       : 4:2:0
    Bit depth                                : 8 bits
    Scan type                                : Progressive
    Compression mode                         : Lossy
    Bits/(Pixel*Frame)                       : 0.236
    Stream size                              : 615 MiB (88%)
    Writing library                          : XviD 1.2.1 (UTC 2008-12-04)
    
    Audio
    ID                                       : 1
    Format                                   : MPEG Audio
    Format version                           : Version 1
    Format profile                           : Layer 3
    Mode                                     : Joint stereo
    Mode extension                           : MS Stereo
    Codec ID                                 : 55
    Codec ID/Hint                            : MP3
    Duration                                 : 1h 23mn
    Bit rate mode                            : Constant
    Bit rate                                 : 128 Kbps
    Channel(s)                               : 2 channels
    Sampling rate                            : 48.0 KHz
    Compression mode                         : Lossy
    Stream size                              : 76.6 MiB (11%)
    Alignment                                : Aligned on interleaves
    Interleave, duration                     : 160 ms (4.00 video frames)
    Interleave, preload duration             : 216 ms
    Title                                    : Poker Ictv
    Writing library                          : LAME3.99r
    Encoding settings                        : -m j -V 4 -q 2 -lowpass 17 -b 128






    Code:
    NETLOAD
    http://www.netload.in/dateiDymDw146qZ/VAS89Joker2012.avi.htm
    
    SHARPFILE
    http://www.sharpfile.com/g4ytwc28b/VAS89Joker2012.avi.html
    
    TURBOBIT
    http://turbobit.net/b3kucuoyct7q/VAS89Joker2012.avi.html
    
    FILEMATES
    http://filemates.com/j7q97ah6ibcp/VAS89Joker2012.avi
    
    UPLOADED
    http://uploaded.net/file/cbiua834/VAS89Joker2012.avi
    
    RAPIDGATOR
    http://rapidgator.net/file/38480294/VAS89Joker2012.avi.html

 

 

Posting Permissions

  • You may not post new threads
  • You may not post replies
  • You may not post attachments
  • You may not edit your posts
  •