Results 1 to 1 of 1
  1. #1

    Red face Joker (2012) (Audio Cleaned) - 1CD - SCam Rip -Xvid -MP3 - ExDRS

    Follow us on Social Media





    Joker (2012) (Audio Cleaned) - 1CD - SCam Rip -Xvid -MP3 - ExDRS



    Code:
    General
    Format : AVI
    Format/Info : Audio Video Interleave
    File size : 695 MiB
    Duration : 1h 23mn
    Overall bit rate : 1 161 Kbps
    Video #0
    ID : 0
    Format : MPEG-4 Visual
    Format profile : Advanced [email protected]
    Format settings, BVOP : 2
    Format settings, QPel : No
    Format settings, GMC : No warppoints
    Format settings, Matrix : Default (H.263)
    Codec ID : XVID
    Codec ID/Hint : XviD
    Duration : 1h 23mn
    Bit rate : 1 075 Kbps
    Width : 640 pixels
    Height : 272 pixels
    Display aspect ratio : 2.35:1
    Frame rate : 25.000 fps
    Color space : YUV
    Chroma subsampling : 4:2:0
    Bit depth : 8 bits
    Scan type : Progressive
    Compression mode : Lossy
    Bits/(Pixel*Frame) : 0.247
    Stream size : 643 MiB (93%)
    
    Audio #1
    ID : 1
    Format : MPEG Audio
    Format version : Version 1
    Format profile : Layer 3
    Mode : Joint stereo
    Mode extension : MS Stereo
    Codec ID : 55
    Codec ID/Hint : MP3
    Duration : 1h 23mn
    Bit rate mode : Constant
    Bit rate : 80.0 Kbps
    Channel(s) : 2 channels
    Sampling rate : 32.0 KHz
    Compression mode : Lossy
    Stream size : 47.9 MiB (7%)









    ]URL=http://www.sendspace.com/file/zcdl9m]Sample[/URL]
    Code:
    Resume Support File[IDM+DAP Supported]
    http://www.sharpfile.com/vbjgq9r32pd/-Joker-.2012.Audio.Cleaned.1CD.SCam.Rip.Xvid.MP3.avi.html
    OR
    http://glumbouploads.com/7skowngphqyi.html



 

 

Posting Permissions

  • You may not post new threads
  • You may not post replies
  • You may not post attachments
  • You may not edit your posts
  •