Results 1 to 1 of 1
  1. #1

    Thumbs up Border (1997) 1/3 DVDRip - Xvid -Mp3 [DUS]

    Follow us on Social Media





    Border (1997) 1/3 DVDRip - Xvid -Mp3 [DUS]






    Code:
    General
    Source : BB1 - The Rocker
    Complete name : Border.1997.DVDRip.dus.avi
    Format : AVI
    Format/Info : Audio Video Interleave
    File size : 1.48 GiB
    Duration : 2h 57mn
    Overall bit rate : 1 193 Kbps
    
    Video
    ID : 0
    Format : MPEG-4 Visual
    Format profile : Advanced [email protected]
    Format settings, BVOP : 2
    Format settings, QPel : No
    Format settings, GMC : No warppoints
    Format settings, Matrix : Default (H.263)
    Codec ID : XVID
    Codec ID/Hint : XviD
    Duration : 2h 57mn
    Bit rate : 931 Kbps
    Width : 720 pixels
    Height : 368 pixels
    Display aspect ratio : 1.957
    Frame rate : 23.976 fps
    Color space : YUV
    Chroma subsampling : 4:2:0
    Bit depth : 8 bits
    Scan type : Progressive
    Compression mode : Lossy
    Bits/(Pixel*Frame) : 0.147
    Stream size : 1.16 GiB (78%)
    Writing library : XviD 1.2.1 (UTC 2008-12-04)
    
    Audio
    ID : 1
    Format : MPEG Audio
    Format version : Version 1
    Format profile : Layer 3
    Mode : Joint stereo
    Codec ID : 55
    Codec ID/Hint : MP3
    Duration : 2h 57mn
    Bit rate mode : Constant
    Bit rate : 256 Kbps
    Channel(s) : 2 channels
    Sampling rate : 48.0 KHz
    Compression mode : Lossy
    Stream size : 326 MiB (21%)
    Alignment : Aligned on interleaves
    Interleave, duration : 167 ms (4.00 video frames)
    Interleave, preload duration : 216 ms
    Title : VTS_01_1 T80 3_2ch 448Kbps DELAY 0ms
    Writing library : LAME3.99r
    Encoding settings : -m j -V 4 -q 2 -lowpass 19.7
    Code:
    Resume Support File[IDM+DAP Supported]
    http://www.sharpfile.com/4m6h2rxdvy79/Border.1997.DVDRip.dus.avi.001.html
    http://www.sharpfile.com/xq26rzh9/Border.1997.DVDRip.dus.avi.002.html
    OR
    http://glumbouploads.com/jf4zidw3wdm2.html
    http://glumbouploads.com/xvsqhzqa0hux.html
    OR
    http://aavg.net/f2j2n6ait2m4
    http://aavg.net/454sve92bhm5
    http://aavg.net/z91do4p5tpn1
    http://aavg.net/pqynrx8z8czu
    OR
    Single Rapidshare Link
    http://rapidshare.com/files/627784274/Border.1997.DVDRip.dus.avi



 

 

Posting Permissions

  • You may not post new threads
  • You may not post replies
  • You may not post attachments
  • You may not edit your posts
  •