Results 1 to 1 of 1
  1. #1
    Hot Member www.desirulez.net
    Join Date
    Jul 2012
    Posts
    643

    Default Ek Tha Tiger(2012) - 1CD - PDVD(New Source) - Xvid - Mp3 - TDBB

    Follow us on Social Media





    Ek Tha Tiger(2012) - 1CD - PDVD(New Source) - Xvid - Mp3 - TDBB




    Ek Tha Tiger 2012 - 1 PreCDRip - MP 3 - XVID - Subs - Alice - TDBB















    Code:
    Source: DST @ Dee Thanks!
    
    General
    Complete name                    : D:\Ek Tha Tiger 2012 - 1 CDRip - MP 3 - XVID - Subs  - Alice - TDBB\Ek Tha Tiger 2012 - 1 CDRip - MP 3 - XVID - Subs  - Alice - TDBB.avi
    Format                           : AVI
    Format/Info                      : Audio Video Interleave
    Format profile                   : OpenDML
    Format settings                  : rec
    File size                        : 691 MiB
    Duration                         : 2h 7mn
    Overall bit rate                 : 761 Kbps
    Writing application              : AVI-Mux GUI 1.17.8.3, Feb 16 201019:42:50
    
    Video
    ID                               : 0
    Format                           : MPEG-4 Visual
    Format profile                   : Advanced [email protected]
    Format settings, BVOP            : 2
    Format settings, QPel            : No
    Format settings, GMC             : No warppoints
    Format settings, Matrix          : Default (H.263)
    Codec ID                         : XVID
    Codec ID/Hint                    : XviD
    Duration                         : 2h 7mn
    Bit rate                         : 677 Kbps
    Width                            : 624 pixels
    Height                           : 272 pixels
    Display aspect ratio             : 2.25:1
    Frame rate                       : 23.976 fps
    Color space                      : YUV
    Chroma subsampling               : 4:2:0
    Bit depth                        : 8 bits
    Scan type                        : Progressive
    Compression mode                 : Lossy
    Bits/(Pixel*Frame)               : 0.166
    Stream size                      : 615 MiB (89%)
    Writing library                  : XviD 1.2.1 (UTC 2008-12-04)
    
    Audio
    ID                               : 1
    Format                           : MPEG Audio
    Format version                   : Version 1
    Format profile                   : Layer 3
    Mode                             : Joint stereo
    Mode extension                   : MS Stereo
    Codec ID                         : 55
    Codec ID/Hint                    : MP3
    Duration                         : 2h 7mn
    Bit rate mode                    : Constant
    Bit rate                         : 80.0 Kbps
    Channel(s)                       : 2 channels
    Sampling rate                    : 32.0 KHz
    Compression mode                 : Lossy
    Stream size                      : 72.7 MiB (11%)

    If U Like My Post Willing To Buy Premium For High Speed Resumable downloads Pls BuY Premium From This Links
    Code:
    http://www.sharpfile.com/mdk78xw3y4/2145ETG2145.avi.html
    
    http://ryushare.com/9yii2nr6k6cg/2145ETG2145.avi
    
    http://freakshare.com/files/j31zltat/2145ETG2145.avi.html
    [/center]

 

 

Posting Permissions

  • You may not post new threads
  • You may not post replies
  • You may not post attachments
  • You may not edit your posts
  •