Results 1 to 1 of 1
  1. #1
    Hot Member www.desirulez.net
    Join Date
    Jul 2012
    Posts
    643

    Default Chhodo Kal Ki Baatein (2012) - 1/3 - DVDRip - XVID - AC3 - Subs - TDBB

    Follow us on Social Media





    Chhodo Kal Ki Baatein (2012) - 1/3 - DVDRip - XVID - AC3 - Subs - TDBB



    Code:
    Source: Saif @ TDT group  thanks!
    
    General
    Complete name                    : D:\Chhodo Kal Ki Baatein 2012 - 1.45 GB - XVID - AC 3- Subs - Alice - TDBB\Chhodo Kal Ki Baatein 2012 - 1.45 GB - XVID - AC 3- Subs - Alice - TDBB.avi
    Format                           : AVI
    Format/Info                      : Audio Video Interleave
    Format profile                   : OpenDML
    Format settings                  : rec
    File size                        : 1.45 GiB
    Duration                         : 2h 12mn
    Overall bit rate                 : 1 563 Kbps
    Writing application              : AVI-Mux GUI 1.17.8.3, Feb 16 201019:42:50
    
    Video
    ID                               : 0
    Format                           : MPEG-4 Visual
    Format profile                   : Advanced [email protected]
    Format settings, BVOP            : 2
    Format settings, QPel            : No
    Format settings, GMC             : No warppoints
    Format settings, Matrix          : Default (H.263)
    Codec ID                         : XVID
    Codec ID/Hint                    : XviD
    Duration                         : 2h 12mn
    Bit rate                         : 1 110 Kbps
    Width                            : 720 pixels
    Height                           : 304 pixels
    Display aspect ratio             : 2.35:1
    Frame rate                       : 23.976 fps
    Color space                      : YUV
    Chroma subsampling               : 4:2:0
    Bit depth                        : 8 bits
    Scan type                        : Progressive
    Compression mode                 : Lossy
    Bits/(Pixel*Frame)               : 0.211
    Stream size                      : 1.03 GiB (71%)
    Writing library                  : XviD 1.2.1 (UTC 2008-12-04)
    
    Audio
    ID                               : 1
    Format                           : AC-3
    Format/Info                      : Audio Coding 3
    Mode extension                   : CM (complete main)
    Codec ID                         : 2000
    Duration                         : 2h 12mn
    Bit rate mode                    : Constant
    Bit rate                         : 448 Kbps
    Channel(s)                       : 6 channels
    Channel positions                : Front: L C R, Side: L R, LFE
    Sampling rate                    : 48.0 KHz
    Bit depth                        : 16 bits
    Compression mode                 : Lossy
    Stream size                      : 426 MiB (29%)
    Alignment                        : Aligned on interleaves
    Interleave, duration             : 64 ms (1.53 video frames)
    Interleave, preload duration     : 192 ms
    Title                            : VTS_02_1 T80 3_2ch 448Kbps DELAY -49ms










    If U Like My Post Willing To Buy Premium For High Speed Resumable downloads Pls BuY Premium From This Links
    Code:
    http://rapidgator.net/file/36787602/2145CHHB2CD32145.avi.html
    
    http://uploaded.net/file/jd89i43w/2145CHHB2CD32145.avi
    Code:
    http://www.sharpfile.com/yzxv27tpd8wf/2145CHHB2CD32145.avi.001.html
    http://www.sharpfile.com/vrnmk69ztg4/2145CHHB2CD32145.avi.002.html

 

 

Posting Permissions

  • You may not post new threads
  • You may not post replies
  • You may not post attachments
  • You may not edit your posts
  •