Results 1 to 1 of 1
  1. #1

    Default [18+] Jism 2 (2012) [DVDRip] [Non-Retail] [Hindi Audio] [Team EXD] [John Rip] [460MB]

    Follow us on Social Media





    [18+] Jism 2 (2012) [DVDRip] [Non- Retail] [x264] [Team EXD] [John Rip] [460MB]



    Jism 2 (2012)
    130 min - Drama | Romance | Thriller - 3 August 2012 (India)
    Ratings: 3.0/10 from 451 users
    Reviews: 17 user | 20 critic


    Izna, a porn star, is given a task by IB Chief Ayaan Thakur to get hold of her ex-lover Kabir, who is now a gangster. But will Kabir accept Izna back into his life?

    Director: Pooja Bhatt
    Writers: Mahesh Bhatt (screenplay), Mahesh Bhatt
    Stars: Mohan Agashe, Randeep Hooda and Sunny Leone | See full cast and crew


    Code:
    General
    Unique ID                                : 220612449942870868853685804030932853545 (0xA5F8698F707814A08F6A5BD69DFCA329)
    Complete name                            : E:\Ali\Upload Movie\[18+].Jism.2(2012).DVDRip.(Non- Retail)-John Rip.mkv
    Format                                   : Matroska
    Format version                           : Version 2
    File size                                : 462 MiB
    Duration                                 : 2h 4mn
    Overall bit rate mode                    : Variable
    Overall bit rate                         : 519 Kbps
    Encoded date                             : UTC 2012-08-23 10:23:39
    Writing application                      : mkvmerge v5.5.0 ('Healer') built on Apr  6 2012 21:43:24
    Writing library                          : libebml v1.2.3 + libmatroska v1.3.0
    
    Video
    ID                                       : 1
    Format                                   : AVC
    Format/Info                              : Advanced Video Codec
    Format profile                           : [email protected]
    Format settings, CABAC                   : Yes
    Format settings, ReFrames                : 4 frames
    Muxing mode                              : Header stripping
    Codec ID                                 : V_MPEG4/ISO/AVC
    Duration                                 : 2h 4mn
    Bit rate                                 : 390 Kbps
    Width                                    : 640 pixels
    Height                                   : 272 pixels
    Display aspect ratio                     : 2.35:1
    Frame rate mode                          : Constant
    Frame rate                               : 29.970 fps
    Color space                              : YUV
    Chroma subsampling                       : 4:2:0
    Bit depth                                : 8 bits
    Scan type                                : Progressive
    Bits/(Pixel*Frame)                       : 0.075
    Stream size                              : 348 MiB (75%)
    Writing library                          : x264 core 120 r2120 0c7dab9
    Encoding settings                        : cabac=1 / ref=3 / deblock=1:0:0 / analyse=0x3:0x113 / me=hex / subme=7 / psy=1 / psy_rd=1.00:0.00 / mixed_ref=1 / me_range=16 / chroma_me=1 / trellis=1 / 8x8dct=1 / cqm=0 / deadzone=21,11 / fast_pskip=1 / chroma_qp_offset=-2 / threads=6 / sliced_threads=0 / nr=0 / decimate=1 / interlaced=0 / bluray_compat=0 / constrained_intra=0 / bframes=3 / b_pyramid=2 / b_adapt=1 / b_bias=0 / direct=1 / weightb=1 / open_gop=0 / weightp=2 / keyint=250 / keyint_min=25 / scenecut=40 / intra_refresh=0 / rc_lookahead=40 / rc=crf / mbtree=1 / crf=26.0 / qcomp=0.60 / qpmin=0 / qpmax=69 / qpstep=4 / ip_ratio=1.40 / aq=1:1.00
    Default                                  : Yes
    Forced                                   : No
    
    Audio
    ID                                       : 2
    Format                                   : MPEG Audio
    Format version                           : Version 1
    Format profile                           : Layer 3
    Mode                                     : Joint stereo
    Mode extension                           : MS Stereo
    Muxing mode                              : Header stripping
    Codec ID                                 : A_MPEG/L3
    Codec ID/Hint                            : MP3
    Duration                                 : 2h 4mn
    Bit rate mode                            : Variable
    Bit rate                                 : 118 Kbps
    Nominal bit rate                         : 128 Kbps
    Channel(s)                               : 2 channels
    Sampling rate                            : 48.0 KHz
    Compression mode                         : Lossy
    Stream size                              : 106 MiB (23%)
    Writing library                          : LAME3.99r
    Encoding settings                        : -m j -V 4 -q 2 -lowpass 17 --abr 128
    Default                                  : Yes
    Forced                                   : No






    Code:
    http://filedefend.com/r0f7l4su4wt3/[18+].Jism.2(2012).DVDRip.(Non-_Retail)-John_Rip.mkv

 

 

Posting Permissions

  • You may not post new threads
  • You may not post replies
  • You may not post attachments
  • You may not edit your posts
  •