Results 1 to 1 of 1
  1. #1

    Default Shirin Farhad Ki Toh Nikal Padi [2012] [x264] [Super CamRip] [Audio Clean]

    Follow us on Social Media








    Code:
    General
    Unique ID                                : 67748451752786114695964608857110381884 (0x32F7E08FA1E4DC1C656C091638FE853C)
    Complete name                            : E:\Ali\Upload Movie\S.F.K.N.P(2012)SCAMRip.AUDIO.CLEANED.mkv
    Format                                   : Matroska
    File size                                : 711 MiB
    Duration                                 : 1h 41mn
    Overall bit rate                         : 975 Kbps
    Writing application                      : AVI-Mux GUI 1.17.8.3, Feb 16 201019:42:50
    Writing library                          : matroska muxer by Alexander Noe, build date Feb 16 2010
    TITLE                                    : 31.2500
    
    Video
    ID                                       : 1
    Format                                   : AVC
    Format/Info                              : Advanced Video Codec
    Format profile                           : [email protected]
    Format settings, CABAC                   : Yes
    Format settings, ReFrames                : 4 frames
    Codec ID                                 : V_MPEG4/ISO/AVC
    Duration                                 : 1h 41mn
    Bit rate                                 : 844 Kbps
    Width                                    : 640 pixels
    Height                                   : 272 pixels
    Display aspect ratio                     : 2.35:1
    Frame rate mode                          : Constant
    Frame rate                               : 25.000 fps
    Color space                              : YUV
    Chroma subsampling                       : 4:2:0
    Bit depth                                : 8 bits
    Scan type                                : Progressive
    Bits/(Pixel*Frame)                       : 0.194
    Stream size                              : 604 MiB (85%)
    Writing library                          : x264 core 125 r2200 999b753
    Encoding settings                        : cabac=1 / ref=3 / deblock=1:0:0 / analyse=0x3:0x113 / me=hex / subme=7 / psy=1 / psy_rd=1.00:0.00 / mixed_ref=1 / me_range=16 / chroma_me=1 / trellis=1 / 8x8dct=1 / cqm=0 / deadzone=21,11 / fast_pskip=1 / chroma_qp_offset=-2 / threads=12 / lookahead_threads=2 / sliced_threads=0 / nr=0 / decimate=1 / interlaced=0 / bluray_compat=0 / constrained_intra=0 / bframes=3 / b_pyramid=2 / b_adapt=1 / b_bias=0 / direct=1 / weightb=1 / open_gop=0 / weightp=2 / keyint=250 / keyint_min=25 / scenecut=40 / intra_refresh=0 / rc_lookahead=40 / rc=2pass / mbtree=1 / bitrate=844 / ratetol=1.0 / qcomp=0.60 / qpmin=0 / qpmax=69 / qpstep=4 / cplxblur=20.0 / qblur=0.5 / ip_ratio=1.40 / aq=1:1.00
    Language                                 : English
    Default                                  : Yes
    Forced                                   : No
    
    Audio
    ID                                       : 2
    Format                                   : AC-3
    Format/Info                              : Audio Coding 3
    Mode extension                           : CM (complete main)
    Format settings, Endianness              : Big
    Codec ID                                 : A_AC3
    Duration                                 : 1h 41mn
    Bit rate mode                            : Constant
    Bit rate                                 : 128 Kbps
    Channel(s)                               : 2 channels
    Channel positions                        : Front: L R
    Sampling rate                            : 48.0 KHz
    Bit depth                                : 16 bits
    Compression mode                         : Lossy
    Stream size                              : 93.3 MiB (13%)
    Title                                    : VTS_01_1 Tc0 L2 2ch 48 128 DELAY 0ms
    Language                                 : English
    Default                                  : No
    Forced                                   : No




    Single Link
    Code:
    http://filedefend.com/i0384wpbtgwk/S.F.K.N.P(2012)SCAMRip.AUDIO.CLEANED.mkv
    Split Links
    Code:
    http://filedefend.com/i0384wpbtgwk/S.F.K.N.P(2012)SCAMRip.AUDIO.CLEANED.mkv
    http://filedefend.com/g29rc4vwrg9y/S.F.K.N.P(2012)SCAMRip.AUDIO.CLEANED.mkv.001
    http://filedefend.com/166f3q8p98c2/S.F.K.N.P(2012)SCAMRip.AUDIO.CLEANED.mkv.002

 

 

Posting Permissions

  • You may not post new threads
  • You may not post replies
  • You may not post attachments
  • You may not edit your posts
  •