Results 1 to 1 of 1
  1. #1
    dR Rockers www.desirulez.net
    Join Date
    Aug 2011
    Posts
    5,859

    Cool Kshay (2011) - 700MB - 1CD - DVDRip - x264 - E.Subs - 5.1- [ExD Exclusive]

    Follow us on Social Media












    Code:
    Rip Information
     
     Format                                   : Matroska Format version                           : Version 2 File size                                : 697 MiB Duration                                 : 1h 32mn Overall bit rate                         : 1 049 Kbps Movie name                               : Kshay.[2011]DVDRip - x264 - E.Subs - 5.1-By [email protected] [ExD Exclusive] 
     
     Video
     
     Format                                   : AVC Format/Info                              : Advanced Video Codec Format profile                           : [email protected] Format settings, CABAC                   : Yes Format settings, ReFrames                : 4 frames Muxing mode                              : Header stripping Codec ID                                 : V_MPEG4/ISO/AVC Duration                                 : 1h 32mn Bit rate                                 : 920 Kbps Width                                    : 720 pixels Height                                   : 272 pixels Display aspect ratio                     : 2.647 Frame rate                               : 25.000 fps Color space                              : YUV Chroma subsampling                       : 4:2:0 Bit depth                                : 8 bits Scan type                                : Progressive Bits/(Pixel*Frame)                       : 0.188 Stream size                              : 598 MiB (86%) Title                                    : [email protected] Writing library                          : x264 core 125 r2200 999b753 
     
     Audio 1
     
     Format                                   : AC-3 Format/Info                              : Audio Coding 3 Mode extension                           : CM (complete main) Format settings, Endianness              : Big Muxing mode                              : Header stripping Codec ID                                 : A_AC3 Duration                                 : 1h 32mn Bit rate mode                            : Constant Bit rate                                 : 128 Kbps Channel(s)                               : 6 channels Channel positions                        : Front: L C R, Side: L R, LFE Sampling rate                            : 48.0 KHz Bit depth                                : 16 bits Compression mode                         : Lossy Stream size                              : 85.1 MiB (12%) Title                                    : [email protected] Language                                 : Hindi








    Code:
    http://extabit.com/file/2dvm7pz1otjij/Kshay.[2011]DVDRip - x264 - E.Subs - 5.1-By [email protected] [ExD Exclusive].mkv
    Code:
    http://www.netload.in/dateiAk2prx00R1/Kshay.[2011]DVDRip - x264 - E.Subs - 5.1-By [email protected] [ExD Exclusive].mkv.htm

 

 

Posting Permissions

  • You may not post new threads
  • You may not post replies
  • You may not post attachments
  • You may not edit your posts
  •