Results 1 to 4 of 4
  1. #1

    Default The Expendables 2 (2012) [HD Super CAMRIP] [Hindi Dubbed Aud

    Follow us on Social Media







    The Expendables 2 (2012)
    103 min - Action | Adventure - 17 August 2012 (USA)
    Ratings: 7.7/10 from 17,761 users Metascore: 51/100
    Reviews: 129 user | 131 critic | 27 from Metacritic.com



    Mr. Church reunites the Expendables for what should be an easy paycheck, but when one of their men is murdered on the job, their quest for revenge puts them deep in enemy territory and up against an unexpected threat.

    Director: Simon West
    Writers: Richard Wenk (screenplay), Sylvester Stallone (screenplay), and 4 more credits »
    Stars: Sylvester Stallone, Liam Hemsworth and Randy Couture | See full cast and crew


    Code:
    General
    Complete name                            : E:\Expendable.2(2012).HD.SCAM.Hindi.Dubbe.Audio.mpg
    Format                                   : MPEG-PS
    File size                                : 631 MiB
    Duration                                 : 1h 30mn
    Overall bit rate mode                    : Variable
    Overall bit rate                         : 975 Kbps
    
    Video
    ID                                       : 224 (0xE0)
    Format                                   : MPEG Video
    Format version                           : Version 2
    Format profile                           : [email protected]
    Format settings, BVOP                    : Yes
    Format settings, Matrix                  : Default
    Duration                                 : 1h 30mn
    Bit rate mode                            : Variable
    Bit rate                                 : 828 Kbps
    Maximum bit rate                         : 9 672 Kbps
    Width                                    : 352 pixels
    Height                                   : 288 pixels
    Display aspect ratio                     : 4:3
    Frame rate                               : 25.000 fps
    Standard                                 : PAL
    Color space                              : YUV
    Chroma subsampling                       : 4:2:0
    Bit depth                                : 8 bits
    Scan type                                : Progressive
    Compression mode                         : Lossy
    Bits/(Pixel*Frame)                       : 0.327
    Stream size                              : 536 MiB (85%)
    
    Audio
    ID                                       : 192 (0xC0)
    Format                                   : MPEG Audio
    Format version                           : Version 1
    Format profile                           : Layer 2
    Duration                                 : 1h 30mn
    Bit rate mode                            : Constant
    Bit rate                                 : 128 Kbps
    Channel(s)                               : 2 channels
    Sampling rate                            : 48.0 KHz
    Compression mode                         : Lossy
    Stream size                              : 82.7 MiB (13%)






  2. #2

    Default

    thanks a lot

  3. #3
    dR Rockers www.desirulez.net
    Join Date
    May 2012
    Posts
    95

    Default

    thx!
    Please Give ''Rep'' For my Hard Work! Thx! ~DracoJ

    ''U C SEE ME''
    John Cena
    ''Never Give Up''

  4. #4
    New Arrivals
    Join Date
    Nov 2011
    Posts
    2

    Default

    i cant click on Download option

 

 

Posting Permissions

  • You may not post new threads
  • You may not post replies
  • You may not post attachments
  • You may not edit your posts
  •